Торренты   
 
 

 

Седьмой сын / Seventh Son (Сергей Бодров) [2014 г., Anamorph OverUnder]

Рейтинг 3D:
15 голосов
7.4
Рейтинг фильма:
18 голосов
6.4
 
Вы должны быть авторизированы,
чтобы ставить оценки


Седьмой сын / Seventh Son
Год выпуска: 2014
Страна: США, Великобритания, Канада, Китай
Жанр: фэнтези, приключения
Продолжительность: 01:41:59
Перевод: Профессиональный (полное дублирование)
Режиссер: Сергей Бодров
В ролях: Бен Барнс, Джефф Бриджес, Джулианна Мур, Алисия Викандер, Антье Трауэ, Оливия Уильямс, Джон ДеСантис, Кит Харингтон, Джимон Хонсу, Джерард Планкет
Описание: Рассказ в фильме пойдет про парня, который, так уж вышло, стал седьмым сыном седьмого сына. А только такой человек может стать ведьмаком. Но этого недостаточно, чтобы именовать себя так - необходимо пройти массу тренировок, а также усердно учиться. Ведь главное оружие ведьмака - это его ум. Хоть в народе их не любят, но кто-то же обязан убивать нечисть, хранить землю от сил зла и делать всю грязную работу? Юный Том Уорд попробует стать тем самым учеником ведьмака.
Качество: BDrip
Контейнер: MKV
Формат 3D: Anamorph OverUnder / Вертикальная анаморфная стереопара
Порядок ракурсов: левый ракурс первый
Видео кодек: x264
Аудио кодек: AC-3
Видео: AVC, High@L4.1, 1920х1080, 23,976 кадра/сек, 9997 Кбит/сек
Аудио:
Russian: 48 kHz, AC3, 3/2 (L,C,R,l,r) + LFE ch, ~640.00 kbps avg |Дубляж|
English: 48 kHz, AC3, 3/2 (L,C,R,l,r) + LFE ch, ~640.00 kbps avg (Original)
Cубтитры: Русские (полные + форс.), английские (Full)

Скриншоты

Media Info

Общее
Уникальный идентификатор : 178395306396800785258364559905436784256 (0x8635AFAE4302BADA826C62784A50D680)
Полное имя : H:\Source\SeventhSon.3D.2014.BDrip.Half.OU.x264.AC3.(itsamna)-BLUEBIRD.mkv
Формат : Matroska
Версия формата : Version 4 / Version 2
Размер файла : 8,20 Гбайт
Продолжительность : 1 ч. 41 м.
Общий поток : 11,5 Мбит/сек
Название фильма : Seventh Son (2014) 3D release BLUEBIRD
Дата кодирования : UTC 2015-04-23 13:40:40
Программа кодирования : mkvmerge v7.8.0 ('River Man') 64bit built on Mar 27 2015 16:31:37
Библиотека кодирования : libebml v1.3.1 + libmatroska v1.4.2
DURATION : 01:32:25.539000000
NUMBER_OF_FRAMES : 1129
NUMBER_OF_BYTES : 36452
_STATISTICS_WRITING_APP : mkvmerge v7.8.0 ('River Man') 64bit built on Mar 27 2015 16:31:37
_STATISTICS_WRITING_DATE_UTC : 2015-04-23 13:40:40
_STATISTICS_TAGS : BPS DURATION NUMBER_OF_FRAMES NUMBER_OF_BYTES
Видео
Идентификатор : 1
Формат : AVC
Формат/Информация : Advanced Video Codec
Профиль формата : High@L4.1
Параметр CABAC формата : Да
Параметр ReFrames формата : 4 кадра
Идентификатор кодека : V_MPEG4/ISO/AVC
Продолжительность : 1 ч. 41 м.
Битрейт : 9997 Кбит/сек
Ширина : 1920 пикселей
Высота : 1080 пикселей
Соотношение сторон : 16:9
Режим частоты кадров : Постоянный
Частота кадров : 23,976 кадра/сек
Цветовое пространство : YUV
Субдискретизация насыщенности : 4:2:0
Битовая глубина : 8 бит
Тип развёртки : Прогрессивная
Бит/(Пиксели*Кадры) : 0.201
Размер потока : 7,12 Гбайт (87%)
Библиотека кодирования : x264 core 130 r2273 b3065e6
Настройки программы : cabac=1 / ref=4 / deblock=1:-3:-3 / analyse=0x3:0x133 / me=umh / subme=10 / psy=1 / psy_rd=1.05:0.15 / mixed_ref=1 / me_range=32 / chroma_me=1 / trellis=2 / 8x8dct=1 / cqm=0 / deadzone=21,11 / fast_pskip=0 / chroma_qp_offset=-3 / threads=12 / lookahead_threads=2 / sliced_threads=0 / nr=0 / decimate=1 / interlaced=0 / bluray_compat=0 / constrained_intra=0 / bframes=8 / b_pyramid=2 / b_adapt=2 / b_bias=0 / direct=3 / weightb=1 / open_gop=0 / weightp=2 / keyint=250 / keyint_min=23 / scenecut=40 / intra_refresh=0 / rc_lookahead=60 / rc=crf / mbtree=1 / crf=17.0 / qcomp=0.60 / qpmin=0 / qpmax=69 / qpstep=4 / vbv_maxrate=50000 / vbv_bufsize=62500 / crf_max=0.0 / nal_hrd=none / ip_ratio=1.40 / aq=1:0.90
Default : Да
Forced : Нет
Аудио #1
Идентификатор : 2
Формат : AC-3
Формат/Информация : Audio Coding 3
Расширение режима : CM (complete main)
Параметр Endianness формата : Big
Идентификатор кодека : A_AC3
Продолжительность : 1 ч. 41 м.
Вид битрейта : Постоянный
Битрейт : 640 Кбит/сек
Каналы : 6 каналов
Расположение каналов : Front: L C R, Side: L R, LFE
Частота : 48,0 КГц
Битовая глубина : 16 бит
Метод сжатия : С потерями
Размер потока : 467 Мбайт (6%)
Заголовок : Dub
Язык : Russian
Default : Да
Forced : Нет
Аудио #2
Идентификатор : 3
Формат : AC-3
Формат/Информация : Audio Coding 3
Расширение режима : CM (complete main)
Параметр Endianness формата : Big
Идентификатор кодека : A_AC3
Продолжительность : 1 ч. 41 м.
Вид битрейта : Постоянный
Битрейт : 640 Кбит/сек
Каналы : 6 каналов
Расположение каналов : Front: L C R, Side: L R, LFE
Частота : 48,0 КГц
Битовая глубина : 16 бит
Метод сжатия : С потерями
Размер потока : 467 Мбайт (6%)
Заголовок : rip by itsamna aka StarStranger
Язык : English
Default : Нет
Forced : Нет
Текст #1
Идентификатор : 4
Формат : UTF-8
Идентификатор кодека : S_TEXT/UTF8
Идентификатор кодека/Информация : UTF-8 Plain Text
Заголовок : forced
Язык : Russian
Default : Да
Forced : Нет
Текст #2
Идентификатор : 5
Формат : UTF-8
Идентификатор кодека : S_TEXT/UTF8
Идентификатор кодека/Информация : UTF-8 Plain Text
Язык : Russian
Default : Нет
Forced : Нет
Текст #3
Идентификатор : 6
Формат : UTF-8
Идентификатор кодека : S_TEXT/UTF8
Идентификатор кодека/Информация : UTF-8 Plain Text
Язык : Ukrainian
Default : Нет
Forced : Нет
Текст #4
Идентификатор : 7
Формат : UTF-8
Идентификатор кодека : S_TEXT/UTF8
Идентификатор кодека/Информация : UTF-8 Plain Text
Язык : English
Default : Нет
Forced : Нет
Текст #5
Идентификатор : 8
Формат : UTF-8
Идентификатор кодека : S_TEXT/UTF8
Идентификатор кодека/Информация : UTF-8 Plain Text
Заголовок : SDH
Язык : English
Default : Нет
Forced : Нет
Текст #6
Идентификатор : 9
Формат : UTF-8
Идентификатор кодека : S_TEXT/UTF8
Идентификатор кодека/Информация : UTF-8 Plain Text
Заголовок : SDH COLORED
Язык : English
Default : Нет
Forced : Нет
Меню
00:00:00.000 : en:00:00:00.000
00:04:50.415 : en:00:04:50.415
00:10:28.545 : en:00:10:28.545
00:16:40.583 : en:00:16:40.583
00:22:40.359 : en:00:22:40.359
00:27:40.450 : en:00:27:40.450
00:30:17.691 : en:00:30:17.691
00:36:45.203 : en:00:36:45.203
00:42:37.388 : en:00:42:37.388
00:49:54.742 : en:00:49:54.742
00:54:45.073 : en:00:54:45.073
00:57:48.548 : en:00:57:48.548
01:02:53.144 : en:01:02:53.144
01:06:53.968 : en:01:06:53.968
01:11:29.285 : en:01:11:29.285
01:18:36.921 : en:01:18:36.921
01:22:10.300 : en:01:22:10.300
01:25:32.669 : en:01:25:32.669
01:30:15.035 : en:01:30:15.035
01:33:21.095 : en:01:33:21.095
Благодарности релизеру (23)

Торрент:

Статус:

Размер:

Зарегистрирован   [ 2015-04-24 15:14 ]

* не проверено

8.2 GB

 
 Мнение о фильме (8)





как фильм, как 3д ?
 
Андрей23192319 Профиль 24-Апр-2015 15:22

3d хорошее, но фильм - хреновенький. Сюжет скомканный, не внятный. Эффекты средние, но смотреть можно. Общее впечатление - норм в начале, лажа в конце
 

фильм кака полная
 

А ЗА РАЗДАЧУ СПАСИБО!
 

Соотношение 16:9 ,но на скриншотах черные полосы. WTF?
 

Спасибо!Фильм класный,семейный,вобщем сказка. StarStranger БОЛЬШОЕ СПАСИБО)))
 

Хорошая сказка. Сюжет и 3D вполне приличны, красочный.
 

3d отсутствует как класс