Торренты   
 
 


Ceдьмoй cын в 3Д / Sеvеnth Sоn 3D (Сергей Бодров ст. / Sergey Bodrov) [2014, Фэнтези, Приключения, BDrip, 1080p]Full OverUnder / Вертикальная стереопара

Рейтинг 3D:
9 голосов
6.8
Рейтинг фильма:
9 голосов
5.7
 
Вы должны быть авторизированы,
чтобы ставить оценки


Седьмой сын / Seventh Son
Год выпуска: 2014
Страна: США, Великобритания, Канада, Китай (Legendary Pictures, Universal Pictures)
Жанр: Фэнтези, Приключения
Продолжительность: 01:42:00
Перевод: Профессиональный (дублированный)
Русские субтитры: нет
Режиссер: Сергей Бодров ст. / Sergey Bodrov
В ролях: Бен Барнс, Джефф Бриджес, Джулианна Мур, Алисия Викандер, Антье Трауэ, Оливия Уильямс, Джон ДеСантис, Кит Харингтон, Джимон Хонсу, Джерард Планкет, Джейсон Скотт Ли, Кэндис МакКлюр, Люк Родерик, Заф Пару, Тимоти Уэббер, Лайла Фицджералд, Марсель Жани, Либби Ослер, Примо Аллон, Тая Клайн
Описание: Рассказ в фильме пойдет про парня, который, так уж вышло, стал седьмым сыном седьмого сына. А только такой человек может стать ведьмаком. Но этого недостаточно, чтобы именовать себя так — необходимо пройти массу тренировок, а также усердно учиться. Ведь главное оружие ведьмака — это его ум. Хоть в народе их не любят, но кто-то же обязан убивать нечисть, хранить землю от сил зла и делать всю грязную работу? Юный Том Уорд попробует стать тем самым учеником ведьмака.
Сэмпл: http://sendfile.su/1111795
Качество: BDrip
Контейнер: MKV
Формат 3D: OverUnder / Вертикальная стереопара
Порядок ракурсов: левый ракурс первый
Видео кодек: x264
Аудио кодек: DTS
Видео: AVC / High@L5.0 / 23,976 fps / 1920х1600 / 19,6 Мбит/сек
Аудио: Русский / DTS / 48 KHz / 5.1 ch / 768 Кбит/сек
Аудио 2: Английский / AC3 / 48 KHz / 5.1 ch / 640 Кбит/сек
Релиз группы: ВНИМАНИЕ ! На встроенных ТВ-плеерах работать не будет!!!
ТВ Samsung в названии которого есть надпись Ultra HD , и LG Ultra HD 800 серии,Xiaomi Mi TV 2 воспроизводят полные стереопары встроенными плеерами
Железные плееры на которых воспроизводятся полные стереопары:Popcorn C-200 , Dune HD Smart D1 , Dune HD DUO , Dune HD Smart H1 , Dune HD Smart B1 , Dune HD Max , Dune HD TV-303D , Dune HD Base 3D, Philips HMP7001, Aura HD

MediaInfo

Общее
Уникальный идентификатор : 253587754910267866934608902819034451194 (0xBEC7399E437E6CFC8FDFEFB932604CFA)
Полное имя : E:\закачки\Seventh Son.Rip by SeRoGa00.mkv
Формат : Matroska
Версия формата : Version 2
Размер файла : 15,2 Гбайт
Продолжительность : 1 ч. 41 м.
Общий поток : 21,4 Мбит/сек
Дата кодирования : UTC 2015-04-25 12:20:34
Программа кодирования : mkvmerge v3.4.0 ('Rapunzel') сборка от May 15 2010 09:38:20
Библиотека кодирования : libebml v0.8.0 + libmatroska v0.9.0
Видео
Идентификатор : 1
Формат : AVC
Формат/Информация : Advanced Video Codec
Профиль формата : High@L5.0
Параметр CABAC формата : Да
Параметр ReFrames формата : 4 кадра
Идентификатор кодека : V_MPEG4/ISO/AVC
Продолжительность : 1 ч. 41 м.
Битрейт : 19,6 Мбит/сек
Ширина : 1920 пикселей
Высота : 1600 пикселей
Соотношение сторон : 1,200
Частота кадров : 23,976 кадра/сек
Цветовое пространство : YUV
Субдискретизация насыщенности : 4:2:0
Битовая глубина : 8 бит
Тип развёртки : Прогрессивная
Бит/(Пиксели*Кадры) : 0.266
Размер потока : 13,9 Гбайт (91%)
Заголовок : Rip by SeRoGa00
Библиотека кодирования : x264 core 142 r2479 dd79a61
Настройки программы : cabac=1 / ref=4 / deblock=1:-3:-3 / analyse=0x3:0x113 / me=umh / subme=9 / psy=1 / psy_rd=1.00:0.15 / mixed_ref=1 / me_range=24 / chroma_me=1 / trellis=2 / 8x8dct=1 / cqm=0 / deadzone=21,11 / fast_pskip=1 / chroma_qp_offset=-3 / threads=9 / lookahead_threads=1 / sliced_threads=0 / nr=0 / decimate=1 / interlaced=0 / bluray_compat=0 / constrained_intra=0 / bframes=8 / b_pyramid=2 / b_adapt=2 / b_bias=0 / direct=3 / weightb=1 / open_gop=0 / weightp=2 / keyint=250 / keyint_min=23 / scenecut=40 / intra_refresh=0 / rc_lookahead=60 / rc=crf / mbtree=1 / crf=18.0 / qcomp=0.60 / qpmin=10 / qpmax=69 / qpstep=4 / vbv_maxrate=30000 / vbv_bufsize=30000 / crf_max=0.0 / nal_hrd=none / filler=0 / ip_ratio=1.40 / aq=1:1.00
Язык : English
Default : Нет
Forced : Нет
Аудио #1
Идентификатор : 2
Формат : DTS
Формат/Информация : Digital Theater Systems
Идентификатор кодека : A_DTS
Продолжительность : 1 ч. 41 м.
Вид битрейта : Постоянный
Битрейт : 768 Кбит/сек
Каналы : 6 каналов
Расположение каналов : Front: L C R, Side: L R, LFE
Частота : 48,0 КГц
Битовая глубина : 24 бит
Метод сжатия : С потерями
Размер потока : 550 Мбайт (4%)
Язык : Russian
Default : Да
Forced : Нет
Аудио #2
Идентификатор : 3
Формат : AC-3
Формат/Информация : Audio Coding 3
Расширение режима : CM (complete main)
Параметр Endianness формата : Big
Идентификатор кодека : A_AC3
Продолжительность : 1 ч. 41 м.
Вид битрейта : Постоянный
Битрейт : 640 Кбит/сек
Каналы : 6 каналов
Расположение каналов : Front: L C R, Side: L R, LFE
Частота : 48,0 КГц
Битовая глубина : 16 бит
Метод сжатия : С потерями
Размер потока : 467 Мбайт (3%)
Язык : English
Default : Нет
Forced : Нет

Скриншоты


Благодарности релизеру (9)

Торрент:

Статус:

Размер:

Зарегистрирован   [ 2015-04-25 17:42 ]

проверено

15.23 GB

 
 Мнение о фильме (4)





Сергей, большое спасибо за эту и остальные раздачи в Full OverUnder! Всегда стараюсь скачивать Ваши релизы!
 

Спасибо за добрые слова. Непривычно читать хорошие отзывы в свой адрес. Обычно меня только ругают, пишут что я делаю кривые рипы и на их супер-пупер ТВ LG 2010 года не "показуеть", и никому не нужны такие раздачи.
 

Как же сложно сейчас приконектить телек к компу,это просто космос какой-то))))
Спасибо за рип.
 

фильм конечно детский ,а вот формат самое то. для попика качаю только такое, спс.