Торренты   
 
 

 

Восхождение Юпитер в 3Д / Jupiter Ascending 3D [2015 г., Anamorph OverUnder]

Рейтинг 3D:
22 голосов
7.8
Рейтинг фильма:
21 голосов
6.5
 
Вы должны быть авторизированы,
чтобы ставить оценки


Восхождение Юпитер в 3Д / Jupiter Ascending 3D
Год выпуска: 2015
Страна: США / Aaron Sims Company, Village Roadshow Pictures, Warner Bros. Pictures
Жанр: фантастика, боевик, приключения
Продолжительность: 02:07:34
Перевод: Профессиональный (полное дублирование)
Режиссер: Энди Вачовски, Лана Вачовски
В ролях: Ченнинг Татум, Мила Кунис, Шон Бин, Эдди Редмэйн, Дуглас Бут, Таппенс Мидлтон, Никки Амука-Бёрд, Кристина Коул, Николас А. Ньюман, Рамон Тикарам
Описание: Юпитер Джонс родилась под ночным небом, и все знаки предсказывали, что девочке предстоят великие свершения. Юпитер выросла и каждый день видит во сне звезды, но просыпается в жесткой реальности, где она работает уборщицей и моет туалеты. Личная жизнь Юпитер тоже оставляет желать лучшего, пока девушка не встречает Кейна. Кейн, бывший военный охотник, прибывает на Землю, чтобы отыскать Юпитер и раскрыть девушке ее истинное предназначение. Благодаря своим генетическим особенностям Юпитер становится претенденткой невероятного наследия, способного изменить равновесие во Вселенной.
Формат 3D: Anamorph OverUnder

Скриншоты



Media Info

Format : Matroska
Format version : Version 2
File size : 11.9 GiB
Duration : 2h 7mn
Overall bit rate : 13.4 Mbps
Movie name : Jupiter.Ascending.2015.3D.CROP.H-OU.[torrent3d.ru]
Encoded date : UTC 2015-05-07 20:50:42
Writing application : mkvmerge v4.0.0 ('The Stars were mine') сборка от Jun 6 2010 16:18:42
Writing library : libebml v1.0.0 + libmatroska v1.0.0
Video
ID : 1
Format : AVC
Format/Info : Advanced Video Codec
Format profile : High@L4.1
Format settings, CABAC : Yes
Format settings, ReFrames : 2 frames
Codec ID : V_MPEG4/ISO/AVC
Duration : 2h 7mn
Bit rate : 12.1 Mbps
Width : 1 920 pixels
Height : 1 080 pixels
Display aspect ratio : 16:9
Frame rate mode : Constant
Frame rate : 23.976 fps
Color space : YUV
Chroma subsampling : 4:2:0
Bit depth : 8 bits
Scan type : Progressive
Bits/(Pixel*Frame) : 0.243
Stream size : 10.8 GiB (90%)
Writing library : x264 core
Default : Yes
Forced : No
Color primaries : BT.709
Transfer characteristics : BT.709
Matrix coefficients : BT.709
Audio #1
ID : 2
Format : AC-3
Format/Info : Audio Coding 3
Mode extension : CM (complete main)
Format settings, Endianness : Big
Codec ID : A_AC3
Duration : 2h 7mn
Bit rate mode : Constant
Bit rate : 384 Kbps
Channel(s) : 6 channels
Channel positions : Front: L C R, Side: L R, LFE
Sampling rate : 48.0 KHz
Bit depth : 16 bits
Compression mode : Lossy
Stream size : 350 MiB (3%)
Language : Russian
Default : Yes
Forced : Yes
Audio #2
ID : 3
Format : AC-3
Format/Info : Audio Coding 3
Mode extension : CM (complete main)
Format settings, Endianness : Big
Codec ID : A_AC3
Duration : 2h 7mn
Bit rate mode : Constant
Bit rate : 640 Kbps
Channel(s) : 6 channels
Channel positions : Front: L C R, Side: L R, LFE
Sampling rate : 48.0 KHz
Bit depth : 16 bits
Compression mode : Lossy
Stream size : 584 MiB (5%)
Language : English
Default : No
Forced : No
Благодарности релизеру (36)

Торрент:

Статус:

Размер:

Зарегистрирован   [ 2015-05-08 17:08 ]

* не проверено

11.91 GB

 
 Мнение о фильме (6)





Хороший фантастический и яркий фильм. Стоит посмотреть
 

Спасибо!Интересная фантастика)))
 

Унылый банальный шлак
 

Сюжет интересный, нестандартный. Игра актеров слабовата. 3Д Эффекты местами очень неплохи.
 

Похож на 5 элемент. Вылеты в конце в виде титров, можно было сделать и в 2Д
 

не воспроизводится на встроенных ТВ-плеерах