Торренты   
 
 

 

Земля медведей / Terre des ours/ Land of the Bears (Гийом Венсан) [2013 г., Anamorph OverUnder]

Рейтинг 3D:
3 голосов
8.2
Рейтинг фильма:
3 голосов
8.2
 
Вы должны быть авторизированы,
чтобы ставить оценки


Земля медведей / Terre des ours/ Land of the Bears
Год выпуска: 2013
Страна: Франция
Жанр: документальный, приключения, семейный
Продолжительность: 01:26:11
Перевод: Профессиональный (одноголосый)
Режиссер: Гийом Венсан
В ролях: Марион Котийяр
Описание: Фильм представляет суровый и прекрасный мир природы Камчатки, на примере жизни наиболее характерных представителей животного мира этого региона - камчатских медведей. Показана история жизни медведей от маленького медвежонка до взрослого медведя. Уникальные съемки в 3D формате.
Доп. информация: За исходный релиз огромная благодарность его автору - DoroshDan.
Формат 3D: Anamorph OverUnder
Видео: 1920x1080 at 23.976 fps, x264@L4.1, 2pass, ~13500 kbps avg
Аудио#1: Russian: 48 kHz, DTS, 3/2 (L,C,R,l,r) + LFE ch, ~1536.00 kbps avg |Одноголосый , Сергей Корчак|
Аудио#2: French: 48 kHz, DTS, 3/2 (L,C,R,l,r) + LFE ch, ~1536.00 kbps avg |Одноголосый , Марион Котийяр / Marion Cotillard|
Аудио#3: English: 48 kHz, DTS, 3/2 (L,C,R,l,r) + LFE ch, ~1536.00 kbps avg |Одноголосый закадровый, Дэвид Гасман / David Gasman|
Аудио#4: Nature: 48 kHz, DTS, 3/2 (L,C,R,l,r) + LFE ch, ~1536.00 kbps avg |Звуки природы / Nature sound|
Субтитры: Russian, French, English

Скриншоты




Media Info

Общее
Уникальный идентификатор : 190639351676984939685045835434334970377 (0x8F6BCDB88DF07753AA36ECCF611D6209)
Полное имя : H:\torrents\Land.of.the Bears.2013.1080p.3D.BluRay.Half-OU.Rus.2xFre.Eng.HDCLUB.mkv
Формат : Matroska
Версия формата : Version 4 / Version 2
Размер файла : 11,8 Гбайт
Продолжительность : 1 ч. 26 м.
Общий поток : 19,5 Мбит/сек
Дата кодирования : UTC 2015-05-17 10:32:47
Программа кодирования : mkvmerge v7.9.0 ('Birds') 64bit
Библиотека кодирования : libebml v1.3.1 + libmatroska v1.4.2
_STATISTICS_WRITING_APP : mkvmerge v7.9.0 ('Birds') 64bit
_STATISTICS_WRITING_DATE_UTC : 2015-05-17 10:32:47
_STATISTICS_TAGS : BPS DURATION NUMBER_OF_FRAMES NUMBER_OF_BYTES
DURATION : 01:25:57.611000000
NUMBER_OF_FRAMES : 536
NUMBER_OF_BYTES : 17641
Attachment : Yes
Видео
Идентификатор : 1
Формат : AVC
Формат/Информация : Advanced Video Codec
Профиль формата : High@L4.1
Параметр CABAC формата : Да
Параметр ReFrames формата : 4 кадра
Идентификатор кодека : V_MPEG4/ISO/AVC
Продолжительность : 1 ч. 26 м.
Битрейт : 13,5 Мбит/сек
Ширина : 1920 пикселей
Высота : 1080 пикселей
Соотношение сторон : 16:9
Режим частоты кадров : Постоянный
Частота кадров : 23,976 кадра/сек
Цветовое пространство : YUV
Субдискретизация насыщенности : 4:2:0
Битовая глубина : 8 бит
Тип развёртки : Прогрессивная
Бит/(Пиксели*Кадры) : 0.272
Размер потока : 7,89 Гбайт (67%)
Заголовок : Land of the Bears (2013) 1080p 3D Half-OU BDRip
Библиотека кодирования : x264 core 146 r2538kMod 121396c
Настройки программы : cabac=1 / ref=4 / deblock=1:-3:-3 / analyse=0x3:0x113 / me=umh / subme=10 / psy=1 / fade_compensate=0.00 / psy_rd=1.00:0.00 / mixed_ref=1 / me_range=64 / chroma_me=1 / trellis=2 / 8x8dct=1 / cqm=0 / deadzone=21,11 / fast_pskip=0 / chroma_qp_offset=-2 / threads=12 / lookahead_threads=2 / sliced_threads=0 / nr=0 / decimate=0 / interlaced=0 / bluray_compat=0 / constrained_intra=0 / fgo=0 / bframes=8 / b_pyramid=2 / b_adapt=2 / b_bias=0 / direct=3 / weightb=1 / open_gop=0 / weightp=2 / keyint=250 / keyint_min=23 / scenecut=40 / intra_refresh=0 / rc_lookahead=80 / rc=2pass / mbtree=0 / bitrate=13500 / ratetol=1.0 / qcomp=0.60 / qpmin=0 / qpmax=69 / qpstep=4 / cplxblur=20.0 / qblur=0.5 / vbv_maxrate=50000 / vbv_bufsize=62500 / nal_hrd=none / filler=0 / frame-packing=4 / ip_ratio=1.40 / pb_ratio=1.30 / aq=1:1.00
Язык : English
Default : Да
Forced : Нет
Аудио #1
Идентификатор : 2
Формат : DTS
Формат/Информация : Digital Theater Systems
Режим : 16
Параметр Endianness формата : Big
Идентификатор кодека : A_DTS
Продолжительность : 1 ч. 26 м.
Вид битрейта : Постоянный
Битрейт : 1509 Кбит/сек
Каналы : 6 каналов
Расположение каналов : Front: L C R, Side: L R, LFE
Частота : 48,0 КГц
Битовая глубина : 24 бит
Метод сжатия : С потерями
Размер потока : 930 Мбайт (8%)
Заголовок : [Сергей Корчак] DTS 5.1 @ 1536 kbps
Язык : Russian
Default : Да
Forced : Нет
Аудио #2
Идентификатор : 3
Формат : DTS
Формат/Информация : Digital Theater Systems
Режим : 16
Параметр Endianness формата : Big
Идентификатор кодека : A_DTS
Продолжительность : 1 ч. 26 м.
Вид битрейта : Постоянный
Битрейт : 1509 Кбит/сек
Каналы : 6 каналов
Расположение каналов : Front: L C R, Side: L R, LFE
Частота : 48,0 КГц
Битовая глубина : 16 бит
Метод сжатия : С потерями
Размер потока : 930 Мбайт (8%)
Заголовок : [Марион Котийяр / Marion Cotillard] DTS 5.1 @ 1536 kbps
Язык : French
Default : Нет
Forced : Нет
Аудио #3
Идентификатор : 4
Формат : DTS
Формат/Информация : Digital Theater Systems
Режим : 16
Параметр Endianness формата : Big
Идентификатор кодека : A_DTS
Продолжительность : 1 ч. 26 м.
Вид битрейта : Постоянный
Битрейт : 1509 Кбит/сек
Каналы : 6 каналов
Расположение каналов : Front: L C R, Side: L R, LFE
Частота : 48,0 КГц
Битовая глубина : 24 бит
Метод сжатия : С потерями
Размер потока : 930 Мбайт (8%)
Заголовок : [Дэвид Гасман / David Gasman] DTS 5.1 @ 1536 kbps
Язык : English
Default : Нет
Forced : Нет
Аудио #4
Идентификатор : 5
Формат : DTS
Формат/Информация : Digital Theater Systems
Режим : 16
Параметр Endianness формата : Big
Идентификатор кодека : A_DTS
Продолжительность : 1 ч. 26 м.
Вид битрейта : Постоянный
Битрейт : 1509 Кбит/сек
Каналы : 6 каналов
Расположение каналов : Front: L C R, Side: L R, LFE
Частота : 48,0 КГц
Битовая глубина : 24 бит
Метод сжатия : С потерями
Размер потока : 930 Мбайт (8%)
Заголовок : [Звуки природы / Nature sound] DTS 5.1 @ 1536 kbps
Язык : French
Default : Нет
Forced : Нет
Текст #1
Идентификатор : 6
Формат : UTF-8
Идентификатор кодека : S_TEXT/UTF8
Идентификатор кодека/Информация : UTF-8 Plain Text
Заголовок : [SRT/UTF8] Full - Владимир Мерленко
Язык : Russian
Default : Нет
Forced : Нет
Текст #2
Идентификатор : 7
Формат : UTF-8
Идентификатор кодека : S_TEXT/UTF8
Идентификатор кодека/Информация : UTF-8 Plain Text
Заголовок : [SRT/UTF8] Full
Язык : French
Default : Нет
Forced : Нет
Текст #3
Идентификатор : 8
Формат : UTF-8
Идентификатор кодека : S_TEXT/UTF8
Идентификатор кодека/Информация : UTF-8 Plain Text
Заголовок : [SRT/UTF8] Full
Язык : English
Default : Нет
Forced : Нет
Меню
00:00:00.000 : :1 - 0:00:00
00:06:19.670 : :2 - 0:06:20
00:15:29.595 : :3 - 0:15:30
00:20:06.413 : :4 - 0:20:06
00:27:38.698 : :5 - 0:27:39
00:35:26.833 : :6 - 0:35:27
00:40:18.290 : :7 - 0:40:18
00:47:38.021 : :8 - 0:47:38
00:55:06.761 : :9 - 0:55:07
01:01:43.741 : :10 - 1:01:44
01:08:20.805 : :11 - 1:08:21
01:16:04.351 : :12 - 1:16:04
Благодарности релизеру (2)

Торрент:

Статус:

Размер:

Зарегистрирован   [ 2015-05-18 22:40 ]

* не проверено

11.76 GB