Торренты   
 
 

 

Оживший Лондонский музей Естествознания / Natural History Museum (Дэниел М. Смит) [2014 г., Anamorph OverUnder]

Рейтинг 3D:
4 голосов
9.0
Рейтинг фильма:
4 голосов
8.8
 
Вы должны быть авторизированы,
чтобы ставить оценки


Оживший Лондонский музей Естествознания / Natural History Museum
Год выпуска: 2014
Страна: Англия
Жанр: документальный
Продолжительность: 1:06:51
Перевод: Профессиональный (одноголосый)
Режиссер: Дэниел М. Смит
В ролях: Дэвид Аттенборо
Описание: Дэвид Аттенборо приглашает зрителей в путешествие по Лондонскому музею естествознания. Когда двери музея заперты и наступает ночь, Аттенборо рассказывает о некоторых из самых увлекательных вымерших животных, которые оживают на его глазах: динозавры, фауна ледникового периода и гигантские рептилии.
Формат 3D: Anamorph OverUnder
Видео: h.264 1920x1080 10 Mbps
Аудио:
1. Русский - AC3 / Ch 2.0 / 192 kbps
2. Английский - AC3 / Ch 2.0 / 192 kbps
Субтитры:
1. Русские
2. Английские

Скриншоты


Media Info

Video
ID : 1
Format : AVC
Format/Info : Advanced Video Codec
Format profile : High@L4.0
Format settings, CABAC : Yes
Format settings, ReFrames : 4 frames
Codec ID : V_MPEG4/ISO/AVC
Duration : 1h 6mn
Bit rate : 9 964 Kbps
Width : 1 920 pixels
Height : 1 080 pixels
Display aspect ratio : 16:9
Frame rate mode : Constant
Frame rate : 23.976 fps
Color space : YUV
Chroma subsampling : 4:2:0
Bit depth : 8 bits
Scan type : Progressive
Bits/(Pixel*Frame) : 0.200
Stream size : 4.65 GiB (94%)
Writing library : x264 core 146 r2538M 121396c
Encoding settings : cabac=1 / ref=4 / deblock=1:-3:-3 / analyse=0x3:0x113 / me=umh / subme=9 / psy=1 / psy_rd=1,05:0,10 / mixed_ref=1 / me_range=16 / chroma_me=1 / trellis=2 / 8x8dct=1 / cqm=0 / deadzone=21,11 / fast_pskip=0 / chroma_qp_offset=-3 / threads=6 / lookahead_threads=1 / sliced_threads=0 / nr=0 / decimate=1 / interlaced=0 / bluray_compat=0 / constrained_intra=0 / bframes=6 / b_pyramid=2 / b_adapt=2 / b_bias=0 / direct=1 / weightb=1 / open_gop=0 / weightp=2 / keyint=230 / keyint_min=23 / scenecut=40 / intra_refresh=0 / rc_lookahead=40 / rc=crf / mbtree=1 / crf=16,0 / qcomp=0,70 / qpmin=3 / qpmax=69 / qpstep=4 / ip_ratio=1,40 / aq=2:1,00
Audio #1
ID : 2
Format : AC-3
Format/Info : Audio Coding 3
Mode extension : CM (complete main)
Format settings, Endianness : Big
Codec ID : A_AC3
Duration : 1h 6mn
Bit rate mode : Constant
Bit rate : 192 Kbps
Channel(s) : 2 channels
Channel positions : Front: L R
Sampling rate : 48.0 KHz
Bit depth : 16 bits
Compression mode : Lossy
Stream size : 91.8 MiB (2%)
Language : Russian
Default : Yes
Forced : No
Audio #2
ID : 3
Format : AC-3
Format/Info : Audio Coding 3
Mode extension : CM (complete main)
Format settings, Endianness : Big
Codec ID : A_AC3
Duration : 1h 6mn
Bit rate mode : Constant
Bit rate : 192 Kbps
Channel(s) : 2 channels
Channel positions : Front: L R
Sampling rate : 48.0 KHz
Bit depth : 16 bits
Compression mode : Lossy
Stream size : 91.8 MiB (2%)
Language : English
Default : No
Forced : No
Text #1
ID : 4
Format : PGS
Muxing mode : zlib
Codec ID : S_HDMV/PGS
Codec ID/Info : The same subtitle format used on BDs/HD-DVDs
Language : Russian
Default : No
Forced : No
Text #2
ID : 5
Format : PGS
Muxing mode : zlib
Codec ID : S_HDMV/PGS
Codec ID/Info : The same subtitle format used on BDs/HD-DVDs
Language : English
Default : No
Forced : No
Благодарности релизеру (19)

Торрент:

Статус:

Размер:

Зарегистрирован   [ 2015-05-23 19:25 ]

* не проверено

4.93 GB

 
 Мнение о фильме (4)





Ну,3D,можно бы и получше,а фильм интересный,спецэффекты,на уровне,как в живую!
 

А кто озвучивает перевод?
 

А кто озвучивает перевод?
D.One, одноголосый перевод от студии "ОМИКРОН"
 
КвадратМалевича Профиль 28-Май-2015 19:44

Нормальная озвучка,один мужик за одного старика,больше и не нужен никто...,страусов что ли озвучивать?