Торренты   
 
 

 

Вестерн 3D [2015 г., Anamorph SideBySide]

Рейтинг 3D:
1 голосов
7.0
Рейтинг фильма:
Пока никто не голосовал
 
Вы должны быть авторизированы,
чтобы ставить оценки


Вестерн 3D
Год выпуска: 2015
Страна: Россия
Жанр: анимация, мультфильм, вестерн, короткометражка
Продолжительность: 00:09:09
Озвучка: Одноголосая (любительская)
Режиссер: Е. Жёлтиков
Описание: Дикий Запад. Погони, перестрелки, драки, любовь и немного юмора.
Качество: BDrip
Контейнер: MP4
Формат 3D: Anamorph SideBySide / Анаморфная горизонтальная стереопара
Порядок ракурсов: левый ракурс первый
Видео: BDrip; MPEG-4, AVC, 1280x720, 16:9, 6957 Кбит/сек, 25,000 кадр/сек.
Аудио: Русский, AAC, 2 канала, 48,0 КГц, 320 Кбит/сек

Скриншоты



Media Info

Общее
Формат : MPEG-4
Профиль формата : Base Media / Version 2
Идентификатор кодека : mp42
Размер файла : 477 Мбайт
Продолжительность : 9 м. 9 с.
Режим общего битрейта : Переменный
Общий поток : 7282 Кбит/сек
Дата кодирования : UTC 2015-06-14 17:00:47
Дата пометки : UTC 2015-06-14 17:00:47
Видео
Идентификатор : 2
Формат : AVC
Формат/Информация : Advanced Video Codec
Профиль формата : High@L4
Параметр CABAC формата : Да
Параметр ReFrames формата : 2 кадра
Режим смешивания : Container profile=Baseline@3.1
Идентификатор кодека : avc1
Идентификатор кодека/Информация : Advanced Video Coding
Продолжительность : 9 м. 9 с.
Вид битрейта : Переменный
Битрейт : 6957 Кбит/сек
Максимальный битрейт : 16,0 Мбит/сек
Ширина : 1280 пикселей
Высота : 720 пикселей
Соотношение сторон : 16:9
Режим частоты кадров : Постоянный
Частота кадров : 25,000 кадров/сек
Цветовое пространство : YUV
Субдискретизация насыщенности : 4:2:0
Битовая глубина : 8 бит
Тип развёртки : Прогрессивная
Бит/(Пиксели*Кадры) : 0.302
Размер потока : 456 Мбайт (96%)
Язык : English
Дата кодирования : UTC 2015-06-14 17:00:47
Дата пометки : UTC 2015-06-14 17:00:47
Аудио
Идентификатор : 1
Формат : AAC
Формат/Информация : Advanced Audio Codec
Профиль формата : LC
Идентификатор кодека : 40
Продолжительность : 9 м. 9 с.
Вид битрейта : Постоянный
Битрейт : 320 Кбит/сек
Каналы : 2 канала
Расположение каналов : Front: L R
Частота : 48,0 КГц
Метод сжатия : С потерями
Размер потока : 21,0 Мбайт (4%)
Язык : Russian
Дата кодирования : UTC 2015-06-14 17:00:47
Дата пометки : UTC 2015-06-14 17:00:47
Благодарности релизеру (2)

Торрент:

Статус:

Размер:

Зарегистрирован   [ 2015-06-14 23:10 ]

проверено

477 MB

 
 Мнение о фильме (2)





Посмотрел фильм. Забавно, хотя конечно озвучка тянет фильм вниз. По поводу 3D: оно конечно же не идеальное, но оно сука есть! В отличии от большинства фильмов, которые сейчас идут в кинотеатрах! Вчера посмотрел Головоломку и она плоская до нельзя просто!
 
Андрей Соболь Профиль 28-Июн-2015 10:10

Спасибо за отзыв :)