Торренты   
 
 


Геймер / Gamer [2009 г., Anamorph OverUnder]

Рейтинг 3D:
7 голосов
5.6
Рейтинг фильма:
8 голосов
5.6
 
Вы должны быть авторизированы,
чтобы ставить оценки


Геймер / Gamer
Год выпуска: 2009
Страна: США
Жанр: Фантастика, Боевик, Триллер
Продолжительность: 01:35:01
Перевод: Профессиональный (полное дублирование)
Русские субтитры: Внешние полные
Украинские субтитры: Внешние полные
Английские субтитры: Внешние по умолчанию
Режиссер на русском: Марк Невелдайн, Брайан Тейлор
Режиссер на английском: Mark Neveldine, Brian Taylor
В ролях: Жерар Батлер, Эмбер Валлетта, Майкл С. Холл, Кира Седжвик, Логан Лерман, Элисон Ломан, Терри Крюс, Рэмси Мур, Лудакрис, Аарон Йу, Джонатан Чейз, Дэн Каллахан, Бриджит Флеминг, Джонни Витуорт, Кейт Джардин, Майкл Уэстон, Джозеф Д. Рейтман, Джон Де Ланси, Мило Вентимиглиа, Зои Белл, Джон Легуизамо
Описание: Действие фильма происходит в недалёком утопическом будущем, где высочайшее развитие нанотехнологий позволило технологическому гению Кену Кастлу соединить видеоигру с реалити-шоу и смоделировать ультрафункциональную, мультиплеерную игру «Убийцы», которая стала средой обитания местных преступников.
Джон Тиллман, приговоренный к пожизненному заключению за преступление, которого не совершал, должен принять участие в Игре, чтобы получить свободу. Для одного богатого молодого игрока Джон Тиллман это — Кэйбл, всего лишь сим, управляемый персонаж игры. Благодаря своим боевым способностям и физической силе, Кэйбл становится национальным героем и занимает первые позиции в игре.
Каждую неделю миллионы людей во всём мире в режиме онлайн следят за ним и сотней других смертников, которые участвуют в битвах игры. По мнению группы мятежников, которая противостоит Кастлу, его игра — это высокотехнологичное рабство, а он является тем критическим элементом, который необходимо уничтожить. Кэйбл/Тиллман оказался между двумя мощными противоборствующими силами, которые не заинтересованы в том, чтобы он выжил. С каждым шагом, за которым наблюдают миллионы, Джон Тилман сражается, чтобы получить свободу, восстановить свою личность и низвергнуть систему, которая его заключила в тюрьму.
Формат 3D: Anamorph OverUnder

Скриншоты



Media Info

Общее
Уникальный идентификатор : 175883923541223657651806618830283735090 (0x845202F237834507B03151F0BB200032)
Полное имя : G:\Gamer(3D)2009.halfOU(Ash61)\Gamer(3D)2009.halfOU(Ash61).mkv
Формат : Matroska
Версия формата : Version 2
Размер файла : 10,4 Гбайт
Продолжительность : 1 ч. 35 м.
Общий поток : 15,7 Мбит/сек
Название фильма : Геймер / Gamer (3D) 2009 (by Ash61)
Дата кодирования : UTC 2013-04-29 03:33:56
Программа кодирования : mkvmerge v5.8.0 ('No Sleep / Pillow') built on Sep 2 2012 15:37:04
Библиотека кодирования : libebml v1.2.3 + libmatroska v1.3.0
Видео
Идентификатор : 1
Формат : AVC
Формат/Информация : Advanced Video Codec
Профиль формата : High@L4.1
Параметр CABAC формата : Да
Параметр ReFrames формата : 4 кадра
Идентификатор кодека : V_MPEG4/ISO/AVC
Продолжительность : 1 ч. 35 м.
Битрейт : 14,1 Мбит/сек
Ширина : 1920 пикселей
Высота : 1080 пикселей
Соотношение сторон : 16:9
Режим частоты кадров : Постоянный
Частота кадров : 23,976 кадра/сек
Цветовое пространство : YUV
Субдискретизация насыщенности : 4:2:0
Битовая глубина : 8 бит
Тип развёртки : Прогрессивная
Бит/(Пиксели*Кадры) : 0.283
Размер потока : 9,34 Гбайт (90%)
Заголовок : BDRip by Ash61
Библиотека кодирования : x264 core 129 r2245 bc13772
Настройки программы : cabac=1 / ref=4 / deblock=1:-3:-3 / analyse=0x3:0x113 / me=umh / subme=9 / psy=1 / psy_rd=1.00:0.15 / mixed_ref=1 / me_range=32 / chroma_me=1 / trellis=2 / 8x8dct=1 / cqm=0 / deadzone=21,11 / fast_pskip=1 / chroma_qp_offset=-3 / threads=12 / lookahead_threads=2 / sliced_threads=0 / nr=0 / decimate=1 / interlaced=0 / bluray_compat=0 / constrained_intra=0 / bframes=8 / b_pyramid=2 / b_adapt=2 / b_bias=0 / direct=3 / weightb=1 / open_gop=0 / weightp=2 / keyint=250 / keyint_min=23 / scenecut=40 / intra_refresh=0 / rc_lookahead=60 / rc=crf / mbtree=1 / crf=17.0 / qcomp=0.70 / qpmin=0 / qpmax=69 / qpstep=4 / vbv_maxrate=40000 / vbv_bufsize=30000 / crf_max=0.0 / nal_hrd=none / frame-packing=4 / ip_ratio=1.40 / aq=1:0.70
Язык : English
Default : Да
Forced : Нет
Аудио #1
Идентификатор : 2
Формат : AC-3
Формат/Информация : Audio Coding 3
Расширение режима : CM (complete main)
Параметр Endianness формата : Big
Идентификатор кодека : A_AC3
Продолжительность : 1 ч. 35 м.
Вид битрейта : Постоянный
Битрейт : 640 Кбит/сек
Каналы : 6 каналов
Расположение каналов : Front: L C R, Side: L R, LFE
Частота : 48,0 КГц
Метод сжатия : С потерями
Размер потока : 435 Мбайт (4%)
Заголовок : Дубляж BD3D
Язык : Russian
Default : Да
Forced : Да
Аудио #2
Идентификатор : 3
Формат : AC-3
Формат/Информация : Audio Coding 3
Расширение режима : CM (complete main)
Параметр Endianness формата : Big
Идентификатор кодека : A_AC3
Продолжительность : 1 ч. 35 м.
Вид битрейта : Постоянный
Битрейт : 640 Кбит/сек
Каналы : 6 каналов
Расположение каналов : Front: L C R, Side: L R, LFE
Частота : 48,0 КГц
Метод сжатия : С потерями
Размер потока : 435 Мбайт (4%)
Заголовок : Original
Язык : English
Default : Нет
Forced : Нет
Меню
00:00:00.000 : :1
00:04:52.000 : :2
00:08:11.324 : :3
00:16:31.407 : :4
00:20:09.750 : :5
00:27:35.654 : :6
00:33:28.632 : :7
00:38:19.881 : :8
00:42:07.358 : :9
00:45:57.088 : :10
00:52:40.949 : :11
00:59:59.596 : :12
01:02:18.818 : :13
01:07:41.057 : :14
01:11:29.243 : :15
01:19:14.291 : :16
Общее
Полное имя : G:\Gamer(3D)2009.halfOU(Ash61)\SubsEngFull-Gamer(3D)2009.halfOU(Ash61).srt
Формат : SubRip
Размер файла : 64,3 Кбайт
Текст
Формат : SubRip
Метод сжатия : Без потерь
Общее
Полное имя : G:\Gamer(3D)2009.halfOU(Ash61)\СубтитрыРусскиеПолные-Gamer(3D)2009.halfOU(Ash61).srt
Формат : SubRip
Размер файла : 83,5 Кбайт
Текст
Формат : SubRip
Метод сжатия : Без потерь
Общее
Полное имя : G:\Gamer(3D)2009.halfOU(Ash61)\СубтитрыУкраинскиеПолные-Gamer(3D)2009.halfOU(Ash61).srt
Формат : SubRip
Размер файла : 75,4 Кбайт
Текст
Формат : SubRip
Метод сжатия : Без потерь
Благодарности релизеру (5)

Торрент:

Статус:

Размер:

Зарегистрирован   [ 2015-06-24 12:37 ]

* не проверено

10.4 GB

 
 Мнение о фильме (5)





А скрины то где?
 

kastitis4, когда выкладывал релиз, скринов еще не было. Сейчас только добавил
 

AHercog, а почему релиз Александра (Ash61) выложен Вами? Других раздач этого фильма на других ресурсах от него не нашёл. Всё, нашёл. Скачаю от автора.
Скрины не похожи на сделанные Александром.
Я в сомнениях.
 

Скриншоты (кликабельные)

Для оценки качества 3д - Анимированные скрины















 

zhuk.m, я эту раздачу на другом треккере скачивал. оттуда и скрины, и все остальное. Увидел, что этого релиза здесь нет и решил кинуть закачать его сюда.