Торренты   
 
 

 

Удивительная природа / Amazing nature (Артур Генри Макмагон / Sir Arthur MacMahon) [2012 г., Anamorph OverUnder]

Рейтинг 3D:
1 голосов
9.0
Рейтинг фильма:
1 голосов
9.0
 
Вы должны быть авторизированы,
чтобы ставить оценки


Удивительная природа / Amazing nature
Год выпуска: 2012
Страна: Германия
Жанр: документальный, видовой
Продолжительность: 53:10
Перевод: Профессиональный (одноголосый)
Режиссер: Артур Генри Макмагон / Sir Arthur MacMahon
Описание: Захватывающее путешествие вглубь красивейших уголков природы в формате 3D откроет новые грани многообразия удивительной жизни нашей планеты. Уникальное стереоскопическое изображение позволит мгновенно перенестись в потрясающую воображение реальность, понаблюдать за животными в их естественной среде обитания, ощутить величие и хрупкость окружающего нас мира и насладиться неповторимыми моментами невероятно яркого и запоминающегося приключения.
Формат 3D: Anamorph OverUnder
Видео: h.264 1920x1080 16.1 Mbps
Аудио: Русский / Ch 5.1/640 kbps

Скриншоты


Media Info

Video
ID : 1
Format : AVC
Format/Info : Advanced Video Codec
Format profile : High@L4.1
Format settings, CABAC : Yes
Format settings, ReFrames : 3 frames
Codec ID : V_MPEG4/ISO/AVC
Duration : 53mn 10s
Bit rate : 16.1 Mbps
Width : 1 920 pixels
Height : 1 080 pixels
Display aspect ratio : 16:9
Frame rate mode : Constant
Frame rate : 23.976 fps
Color space : YUV
Chroma subsampling : 4:2:0
Bit depth : 8 bits
Scan type : Progressive
Bits/(Pixel*Frame) : 0.324
Stream size : 5.98 GiB (94%)
Writing library : x264 core 128 r2216M 198a7ea
Encoding settings : cabac=1 / ref=4 / deblock=1:-3:-3 / analyse=0x3:0x133 / me=umh / subme=9 / psy=1 / psy_rd=1.00:0.20 / mixed_ref=1 / me_range=16 / chroma_me=1 / trellis=2 / 8x8dct=1 / cqm=0 / deadzone=21,11 / fast_pskip=1 / chroma_qp_offset=-3 / threads=4 / lookahead_threads=1 / sliced_threads=0 / nr=0 / decimate=1 / interlaced=0 / bluray_compat=0 / constrained_intra=0 / bframes=6 / b_pyramid=1 / b_adapt=2 / b_bias=0 / direct=1 / weightb=1 / open_gop=0 / weightp=2 / keyint=230 / keyint_min=23 / scenecut=40 / intra_refresh=0 / rc_lookahead=40 / rc=crf / mbtree=1 / crf=16.0 / qcomp=0.60 / qpmin=10 / qpmax=51 / qpstep=4 / ip_ratio=1.40 / aq=1:1.00
Default : Yes
Forced : No
Audio
ID : 2
Format : AC-3
Format/Info : Audio Coding 3
Mode extension : CM (complete main)
Format settings, Endianness : Big
Codec ID : A_AC3
Duration : 53mn 10s
Bit rate mode : Constant
Bit rate : 640 Kbps
Channel(s) : 6 channels
Channel positions : Front: L C R, Side: L R, LFE
Sampling rate : 48.0 KHz
Bit depth : 16 bits
Compression mode : Lossy
Stream size : 243 MiB (4%)
Language : Russian
Default : Yes
Forced : No
Благодарности релизеру (11)

Торрент:

Статус:

Размер:

Зарегистрирован   [ 2015-07-06 18:26 ]

* не проверено

6.34 GB