Торренты   
 
 

 

Marble boy 3D [2015 г., Anamorph OverUnder]

Рейтинг 3D:
1 голосов
7.0
Рейтинг фильма:
Пока никто не голосовал
 
Вы должны быть авторизированы,
чтобы ставить оценки


Marble boy 3D
Год выпуска: 2015
Страна: Россия
Жанр: Репортажное авторское 3D
Продолжительность: 2 мин. 16 сек.
Описание: Ловкость рук и никакого мошенничества
Формат 3D: Anamorph OverUnder
Видео: AVC, 1920х1080p, 25Гц, 20Мбит/с

Скриншоты


Media Info

General
Complete name : C:\3d_marble_1080_25p_halfOU.mp4
Format : MPEG-4
Format profile : Base Media / Version 2
Codec ID : mp42
File size : 318 MiB
Duration : 2mn 16s
Overall bit rate mode : Variable
Overall bit rate : 19.6 Mbps
Encoded date : UTC 2015-07-16 20:12:04
Tagged date : UTC 2015-07-16 20:12:04
Video #2
ID : 2
Format : AVC
Format/Info : Advanced Video Codec
Format profile : High@L4.0
Format settings, CABAC : Yes
Format settings, ReFrames : 2 frames
Format settings, GOP : M=2, N=13
Codec ID : avc1
Codec ID/Info : Advanced Video Coding
Duration : 2mn 16s
Bit rate mode : Variable
Bit rate : 19.4 Mbps
Maximum bit rate : 22.0 Mbps
Width : 1 920 pixels
Height : 1 080 pixels
Display aspect ratio : 16:9
Frame rate mode : Constant
Frame rate : 25.000 fps
Color space : YUV
Chroma subsampling : 4:2:0
Bit depth : 8 bits
Scan type : Progressive
Bits/(Pixel*Frame) : 0.374
Stream size : 314 MiB (99%)
Language : English
Encoded date : UTC 2015-07-16 20:12:04
Tagged date : UTC 2015-07-16 20:12:04
Audio #1
ID : 1
Format : AAC
Format/Info : Advanced Audio Codec
Format profile : LC
Codec ID : 40
Duration : 2mn 15s
Bit rate mode : Constant
Bit rate : 256 Kbps
Channel count : 2 channels
Channel positions : Front: L R
Sampling rate : 48.0 KHz
Compression mode : Lossy
Delay relative to video : 40ms
Stream size : 4.15 MiB (1%)
Language : English
Encoded date : UTC 2015-07-16 20:12:04
Tagged date : UTC 2015-07-16 20:12:04
Благодарности релизеру (5)

Торрент:

Статус:

Размер:

Зарегистрирован   [ 2015-07-17 01:07 ]

* не проверено

318 MB

 
 Мнение о фильме (33)

Пред.  1, 2






pavelvd, SONY HDR-TD10E, пожалуйста )
turin2002, конечно, я вижу эту разницу Вадим, и меня так и подталкивало сделать кроп 1760. Но головы бы не поместилось по высоте, особенно в финале, где Marble boy кланяется
 

Сообщение удалено.
 

Я намеренно не выдвинул его в зал, только руки и шар. И вообще не хотел принимать к краям кадра. Это если бы его намеренно постановочно просить протянуть руки в кадр, то можно было бы снять эффектнее, но это репортаж - как было так было.
 

Я помню про "рамку Тюрина" ))))), но она много информации перекрывает на дисплее, кнопок и т.п.
 

...меня так и подталкивало сделать кроп 1760. Но головы бы не поместилось по высоте, особенно в финале, где Marble boy кланяется...
StasyanTT, "плавающий" кроп не пробовали делать?
 
КвадратМалевича Профиль 19-Июл-2015 17:30

Сообщение удалено.
 

turin2002, соглашусь с полупровзачной... из обрезков тонировочной пленки. Теперь этот прием надо Олегу Ивановичу применять и другим владельцам камер с автостереоскопическими дисплеями.[quote=""]ты уже всё снял - ничего уже не зависит, потому что - то что снято, то уже снято, и всё что тебе остается
потому и не будет больше нового что так или иначе вижу что снято криво. НЕТ, Я - ДОВОЛЕН СНЯТЫМ, но на всеобщий суд выкладывать нечего, уж извините, либо личное либо под конкретных людей снято (конфиденциальность обязывает )
 

Вадим, спасибо Вам огромное за полезные советы!
 

...я... еще год назад предлагал сделать на экране рамочку и уменьшить "кадровое окно"...
А вот если бы она... была :( - то тогда и запас под кроп ;) - всегда бы оставался.
Код:
turin2002, на самом деле такая рамочка хороша при постановочной съёмке, а вот при репортажной (быстрое перемещение оператора или объекта, невозможность подойти ближе/дальше к объекту и т.п.) она вряд ли чем-то поможет...
Хотя, при дальнейшей обработке на монтажном столе возможно некое исправление кропом, но, опять же, как я писал выше, применять следует "плавающий" кроп, т.е. не по всей протяжённости файла, а там, где в этом есть необходимость и возможность его применить...
 
КвадратМалевича Профиль 20-Июл-2015 10:15

Сообщение удалено.
 

Вадим, какие могут быть обиды, абсолютно наоборот, такое количество советов и наставлений, разборы полетов или падений, я все это очень ценю и "мотаю на ус". Спасибо.
 

"плавающий" кроп
Конечно применял, в той же "воздушной Фиесте" или "Привете из Ярославля", в "Не Скайфол"
 

Сообщение удалено.
 

Страница 2 из 2

Пред.  1, 2