Торренты   
 
 

 

Махни крылом / Gus - Petit oiseau, grand voyage (Кристиан Де Вита) [2014 г., Anamorph OverUnder]

Рейтинг 3D:
6 голосов
7.7
Рейтинг фильма:
5 голосов
7.5
 
Вы должны быть авторизированы,
чтобы ставить оценки


Махни крылом / Gus - Petit oiseau, grand voyage
Год выпуска: 2014
Страна: Франция, Бельгия
Жанр: Мультфильм, комедия, приключения
Продолжительность: 01:30:10
Перевод: Профессиональный (полное дублирование)
Режиссер: Кристиан Де Вита
В ролях: Сет Грин, Иветт Николь Браун, Джим Рэш, Дакота Фэннинг, Кристин Барански, Натали Бутфо, Брэйди Корбет, Артур Дюпон, Сара Форестье, Дэнни Гловер
Описание: Каждый год, все птицы улетают на юг. Должна улететь и стая нашего юного героя Чижика, но в последний момент перед перелетом на вожака стаи Дариуса нападает злой кот. Только Дариус знает дорогу на юг, и он успевает передать секрет Чижику, который теперь должен стать вожаком стаи. У Чижика нет опыта таких дальних перелетов, и тем более, опыта лидерства в стае, но ему не остается ничего, кроме как быстро учиться.
Формат 3D: Anamorph OverUnder
Видео: 1920x1080 h.264 9.7 Mbps
Аудио: Русский AC3 / Ch5.1 / 384 kbps

Скриншоты


MediaInfo

Video
ID : 1
Format : AVC
Format/Info : Advanced Video Codec
Format profile : High@L4.1
Format settings, CABAC : Yes
Format settings, ReFrames : 4 frames
Codec ID : V_MPEG4/ISO/AVC
Duration : 1h 30mn
Bit rate : 9 695 Kbps
Width : 1 920 pixels
Height : 1 080 pixels
Display aspect ratio : 16:9
Frame rate mode : Constant
Frame rate : 23.976 fps
Color space : YUV
Chroma subsampling : 4:2:0
Bit depth : 8 bits
Scan type : Progressive
Bits/(Pixel*Frame) : 0.195
Stream size : 6.11 GiB (94%)
Default : Yes
Forced : No
Audio
ID : 2
Format : AC-3
Format/Info : Audio Coding 3
Mode extension : CM (complete main)
Format settings, Endianness : Big
Codec ID : A_AC3
Duration : 1h 30mn
Bit rate mode : Constant
Bit rate : 384 Kbps
Channel(s) : 6 channels
Channel positions : Front: L C R, Side: L R, LFE
Sampling rate : 48.0 KHz
Bit depth : 16 bits
Compression mode : Lossy
Stream size : 248 MiB (4%)
Language : Russian
Благодарности релизеру (19)

Торрент:

Статус:

Размер:

Зарегистрирован   [ 2015-07-18 21:46 ]

проверено

6.48 GB