Торренты   
 
 

 

Медсестра / Nurse 3-D [2013, BDRip, half1080p, Anamorph OverUnder] iTunes

Рейтинг 3D:
5 голосов
8.0
Рейтинг фильма:
5 голосов
6.4
 
Вы должны быть авторизированы,
чтобы ставить оценки


-Медсестра
Nurse 3-D

«Ваша боль – её наслаждение»
- Год выпуска: 2013
Страна: США (Lionsgate)
Жанр: Триллер, Ужасы
Продолжительность: 1:23:54
Перевод: Профессиональный дублированный - iTunes
Режиссер: Дуглас Арниокоски / Douglas Aarniokoski-Роли исполняли:

Пас де ла Уэрта (Abby Russell), Катрина Боуден (Danni), Корбин Блю (Steve), Джадд Нельсон (Dr. Morris), Борис Коджо (Detective John Rogan), Адам Хершман (Jared), Найси Нэш (Regina), Кэтлин Тёрнер (Head Nurse Betty Watson), Майкл Эклунд (Richie), Мартин Донован (Larry Cook), Мелани Скорфано (Rachel Adams)
Роли дублировали: Екатерина Семенова, Даниил Эльдаров, Евгения Ваган
-Описание: Днём она — примерная медсестра, которой люди доверяют свою жизнь. А ночью она использует собственную сексуальность, соблазняя людей, чтобы затем убить их с особой жестокостью… Крови становится все больше, и её коллега начинает свое расследование, но кажется, что подозрениям никто не готов поверить…-Возрастное ограничение: 18+-Премьера: 28 сентября 2013 (10 апреля 2014)
Бюджет: $10 000 000

. .
-Качество: BDRip (by Ash61)
Контейнер: MKV
Формат 3D: Half OverUnder / Вертикальная анаморфная стереопара
Порядок ракурсов: левый ракурс первый
Видео кодек: x264
Аудио кодек: AC3-Видео: AVC / 23,976 fps / 1920х1080p / 11.4 Mbps
Аудио:
#1 - Русский / AC3 / 48 KHz / 5.1 ch / 384 Kbps (Дубляж - iTunes)
#2 - Английский / AC3 / 48 KHz / 5.1 ch / 640 Kbps (Original - BD 3D)
Субтитры: Внешние (SRT UTF-8) English Full (i)

MediaInfo

General
Unique ID : 250848993385786165107022539980444241763 (0xBCB7C23FEFFCFCDA95A13F31158B8F63)
Complete name : E:\Nurse(2013)3D-halfOU(Ash61)iTunes\Nurse(2013)3D-halfOU(Ash61)iTunes.mkv
Format : Matroska
Format version : Version 2
File size : 7.42 GiB
Duration : 1h 23mn
Overall bit rate : 12.7 Mbps
Movie name : Медсестра / Nurse 3-D (2013) 3D
Encoded date : UTC 2015-07-28 11:00:55
Writing application : mkvmerge v5.8.0 ('No Sleep / Pillow') built on Sep 2 2012 15:37:04
Writing library : libebml v1.2.3 + libmatroska v1.3.0
Video
ID : 1
Format : AVC
Format/Info : Advanced Video Codec
Format profile : High@L4.1
Format settings, CABAC : Yes
Format settings, ReFrames : 4 frames
Codec ID : V_MPEG4/ISO/AVC
Duration : 1h 23mn
Bit rate : 11.4 Mbps
Width : 1 920 pixels
Height : 1 080 pixels
Display aspect ratio : 16:9
Frame rate mode : Constant
Frame rate : 23.976 fps
Color space : YUV
Chroma subsampling : 4:2:0
Bit depth : 8 bits
Scan type : Progressive
Bits/(Pixel*Frame) : 0.229
Stream size : 6.67 GiB (90%)
Title : BDRip by Ash61
Writing library : x264 core 129 r2245 bc13772
Encoding settings : cabac=1 / ref=4 / deblock=1:-3:-3 / analyse=0x3:0x113 / me=umh / subme=10 / psy=1 / psy_rd=1.00:0.15 / mixed_ref=1 / me_range=32 / chroma_me=1 / trellis=2 / 8x8dct=1 / cqm=0 / deadzone=21,11 / fast_pskip=1 / chroma_qp_offset=-3 / threads=12 / lookahead_threads=2 / sliced_threads=0 / nr=0 / decimate=1 / interlaced=0 / bluray_compat=0 / constrained_intra=0 / bframes=8 / b_pyramid=2 / b_adapt=2 / b_bias=0 / direct=3 / weightb=1 / open_gop=0 / weightp=2 / keyint=250 / keyint_min=23 / scenecut=40 / intra_refresh=0 / rc_lookahead=60 / rc=crf / mbtree=1 / crf=17.5 / qcomp=0.70 / qpmin=0 / qpmax=69 / qpstep=4 / vbv_maxrate=40000 / vbv_bufsize=30000 / crf_max=0.0 / nal_hrd=none / frame-packing=4 / ip_ratio=1.40 / aq=1:0.70
Language : English
Default : Yes
Forced : No
Audio #1
ID : 2
Format : AC-3
Format/Info : Audio Coding 3
Mode extension : CM (complete main)
Format settings, Endianness : Big
Codec ID : A_AC3
Duration : 1h 23mn
Bit rate mode : Constant
Bit rate : 384 Kbps
Channel(s) : 6 channels
Channel positions : Front: L C R, Side: L R, LFE
Sampling rate : 48.0 KHz
Bit depth : 16 bits
Compression mode : Lossy
Stream size : 230 MiB (3%)
Title : Дубляж - iTunes
Language : Russian
Default : Yes
Forced : No
Audio #2
ID : 3
Format : AC-3
Format/Info : Audio Coding 3
Mode extension : CM (complete main)
Format settings, Endianness : Big
Codec ID : A_AC3
Duration : 1h 23mn
Bit rate mode : Constant
Bit rate : 640 Kbps
Channel(s) : 6 channels
Channel positions : Front: L C R, Side: L R, LFE
Sampling rate : 48.0 KHz
Bit depth : 16 bits
Compression mode : Lossy
Stream size : 384 MiB (5%)
Title : Original - BD 3D
Language : English
Default : No
Forced : No
Menu
00:00:00.000 : :1
00:07:10.847 : :2
00:15:27.343 : :3
00:24:20.626 : :4
00:34:44.708 : :5
00:44:04.892 : :6
00:52:09.585 : :7
01:01:07.914 : :8
01:10:49.287 : :9
01:19:23.258 : :10

Для оценки 3Д - Анимированные скрины















Благодарности релизеру (18)

Торрент:

Статус:

Размер:

Зарегистрирован   [ 2015-07-28 20:24 ]

* не проверено

7.42 GB

 
 Мнение о фильме (4)





Уважаемый ash61, не могли бы вы отдельно выложить русский дубляж.
На трекере есть CROP версия данного фильма, но звук аццкий, невозможно смотреть
Возможно, если вы дружите/общаетесь, отправить эту дорожку Dag13, автору кропа, может он пересоберет и обновит свой торрент. Опять же, он может просто добавить ее в свой торрент, если нет времени переделывать/перезаливать фильм.
Спасибо!
 

Русская дорога iTunes для этого фильма - https://cloud.mail.ru/public/L17X/xY4q3K24K
 

ash61, спасибо, скачал!
 

Спасибо,посмотрим.