Торренты   
 
 


Дивергент, глава 2: Инсургент / Insurgent (Роберт Швентке) [2015 г., Anamorph OverUnder]

Рейтинг 3D:
10 голосов
5.3
Рейтинг фильма:
10 голосов
4.2
 
Вы должны быть авторизированы,
чтобы ставить оценки



Дивергент, глава 2: Инсургент / Insurgent
Год выпуска: 2015
Страна: Red Wagon Entertainment, Mandeville Films, Summit Entertainment (США)
Жанр: фантастика, триллер, приключения
Продолжительность: 01:58:59
Перевод: Профессиональный (полное дублирование)
Режиссер: Роберт Швентке
В ролях: Шейлин Вудли, Тео Джеймс, Кейт Уинслет, Джай Кортни, Энсел Элгорт, Майлз Теллер, Зои Кравиц, Мекхай Файфер, Наоми Уоттс, Октавия Спенсер
Описание: В новой главе антиутопии об обществе, где все расставлено по полочкам, а любая индивидуальность подлежит искоренению, Трис должна найти способ борьбы со страшной системой, уничтожающей ее близких. Кто из них на очереди? Она узнает все больше страшных подробностей, стоящих за кажущимся порядком, и уже не может не видеть, что в ее мире пора что-то менять. Но главное в этой борьбе – справиться с расколом, который враг порождает в ее собственной душе.
Качество: BDrip
Контейнер: MKV
Формат 3D: Anamorph OverUnder / Вертикальная анаморфная стереопара
Порядок ракурсов: левый ракурс первый
Видео кодек: x264
Аудио кодек: AC-3
Видео: AVC, High@L4.1, 1920х1080, 23,976 кадра/сек, 5309 Кбит/сек
Аудио:
Russian: 48 kHz, AC3, 3/2 (L,C,R,l,r) + LFE ch, ~640.00 kbps avg |Дубляж|
Cубтитры: отсутствуют

Скриншоты



Media Info

Общее
Уникальный идентификатор : 231216298241839078479280193141224630069 (0xADF2A3A55397FC18A554E14D030DE735)
Полное имя : H:\Source\Insurgent.3D.2015.BDrip.Half.OU.x264.AC3.(itsamna).mkv
Формат : Matroska
Версия формата : Version 4 / Version 2
Размер файла : 5,05 Гбайт
Продолжительность : 1 ч. 59 м.
Общий поток : 6070 Кбит/сек
Название фильма : Insurgent (2015) - Release for IvBT
Дата кодирования : UTC 2015-08-05 10:49:16
Программа кодирования : mkvmerge v7.8.0 ('River Man') 64bit built on Mar 27 2015 16:31:37
Библиотека кодирования : libebml v1.3.1 + libmatroska v1.4.2
DURATION : 01:59:00.544000000
NUMBER_OF_FRAMES : 223142
NUMBER_OF_BYTES : 571243520
_STATISTICS_WRITING_APP : mkvmerge v7.8.0 ('River Man') 64bit built on Mar 27 2015 16:31:37
_STATISTICS_WRITING_DATE_UTC : 2015-08-05 10:49:16
_STATISTICS_TAGS : BPS DURATION NUMBER_OF_FRAMES NUMBER_OF_BYTES
Видео
Идентификатор : 1
Формат : AVC
Формат/Информация : Advanced Video Codec
Профиль формата : High@L4.1
Параметр CABAC формата : Да
Параметр ReFrames формата : 4 кадра
Идентификатор кодека : V_MPEG4/ISO/AVC
Продолжительность : 1 ч. 59 м.
Битрейт : 5309 Кбит/сек
Ширина : 1920 пикселей
Высота : 1080 пикселей
Соотношение сторон : 16:9
Режим частоты кадров : Постоянный
Частота кадров : 23,976 кадра/сек
Цветовое пространство : YUV
Субдискретизация насыщенности : 4:2:0
Битовая глубина : 8 бит
Тип развёртки : Прогрессивная
Бит/(Пиксели*Кадры) : 0.107
Размер потока : 4,41 Гбайт (87%)
Библиотека кодирования : x264 core 130 r2273 b3065e6
Настройки программы : cabac=1 / ref=4 / deblock=1:-3:-3 / analyse=0x3:0x133 / me=umh / subme=10 / psy=1 / psy_rd=1.05:0.15 / mixed_ref=1 / me_range=32 / chroma_me=1 / trellis=2 / 8x8dct=1 / cqm=0 / deadzone=21,11 / fast_pskip=0 / chroma_qp_offset=-3 / threads=12 / lookahead_threads=2 / sliced_threads=0 / nr=0 / decimate=1 / interlaced=0 / bluray_compat=0 / constrained_intra=0 / bframes=8 / b_pyramid=2 / b_adapt=2 / b_bias=0 / direct=3 / weightb=1 / open_gop=0 / weightp=2 / keyint=250 / keyint_min=23 / scenecut=40 / intra_refresh=0 / rc_lookahead=60 / rc=crf / mbtree=1 / crf=18.0 / qcomp=0.60 / qpmin=0 / qpmax=69 / qpstep=4 / vbv_maxrate=50000 / vbv_bufsize=62500 / crf_max=0.0 / nal_hrd=none / ip_ratio=1.40 / aq=1:0.90
Default : Да
Forced : Нет
Аудио
Идентификатор : 2
Формат : AC-3
Формат/Информация : Audio Coding 3
Расширение режима : CM (complete main)
Параметр Endianness формата : Big
Идентификатор кодека : A_AC3
Продолжительность : 1 ч. 59 м.
Вид битрейта : Постоянный
Битрейт : 640 Кбит/сек
Каналы : 6 каналов
Расположение каналов : Front: L C R, Side: L R, LFE
Частота : 48,0 КГц
Битовая глубина : 16 бит
Метод сжатия : С потерями
Размер потока : 545 Мбайт (11%)
Заголовок : AC3 5.1 @ 640 kbps - DUB, iTunes
Язык : Russian
Default : Да
Forced : Нет
Благодарности релизеру (5)

Торрент:

Статус:

Размер:

Зарегистрирован   [ 2015-08-05 15:52 ]

* не проверено

5.05 GB

 
 Мнение о фильме (2)





один из самых идиотских фильмов, наряду с голодными играми 2... про 3Д не скажу, норм, но фильм еле еле досмотрел до половины и, испугавшись, как бы не пошел ужин назад, выключил и удалил.
 

3D хорошее,объем супер, но сам фильм довольно скучный с трудом досмотрел (много болтовни, типичный фильм для подростков) 3Д вылетов нет.