Торренты   
 
 

 

Король Лев / The Lion King (Роджер Аллерс, Роб Минкофф) [1994 г., Anamorph OverUnder]

Рейтинг 3D:
5 голосов
7.0
Рейтинг фильма:
7 голосов
7.9
 
Вы должны быть авторизированы,
чтобы ставить оценки


Король Лев / The Lion King
Год выпуска: 1994
Страна: США
Жанр: мультфильм, мюзикл, драма, комедия, приключения, семейный
Продолжительность: 01:28:50
Перевод: Профессиональный (полное дублирование)
Режиссер: Роджер Аллерс, Роб Минкофф
В ролях: Джереми Айронс, Мэттью Бродерик, Натан Лейн, Эрни Сабелла, Джеймс Эрл Джонс, Мойра Келли, Роуэн Эткинсон, Вупи Голдберг, Чич Марин, Джонатан Тейлор Томас
Описание: У величественного Короля-Льва Муфасы рождается наследник по имени Симба. Уже в детстве любознательный малыш становится жертвой интриг своего завистливого дяди Шрама, мечтающего о власти.
Симба познаёт горе утраты, предательство и изгнание, но в конце концов обретает верных друзей и находит любимую. Закалённый испытаниями, он в нелёгкой борьбе отвоёвывает своё законное место в «Круге жизни», осознав, что значит быть настоящим Королём
.

Дополнительная информация о релизе

Убрана "гребенка", возникавшая из-за гибридного интерлейса в исходном блю-рее (наличие можно заметить уже в начальных надписях "Walt Disney Pictures presents" и "special 3D presentation" - просто скачайте и сравните).
Формат 3D: Anamorph OverUnder
Видео: h.264 1868x1080 8.3 Mbps
Аудио:
1. Русский - AC3 / Ch5.1 / 640 kbps
2. Английский - DTS / Ch5.1 / 1536 kbps
Субтитры:
1. Английские - полные

Скриншоты


Media Info

Video
ID : 1
Format : AVC
Format/Info : Advanced Video Codec
Format profile : High@L4.1
Format settings, CABAC : Yes
Format settings, ReFrames : 4 frames
Codec ID : V_MPEG4/ISO/AVC
Duration : 1h 28mn
Bit rate : 8 287 Kbps
Width : 1 868 pixels
Height : 1 080 pixels
Display aspect ratio : 1.730
Frame rate mode : Constant
Frame rate : 23.976 fps
Color space : YUV
Chroma subsampling : 4:2:0
Bit depth : 8 bits
Scan type : MBAFF
Bits/(Pixel*Frame) : 0.171
Stream size : 5.14 GiB (78%)
Writing library : x264 core 146 r2538M 121396c
Encoding settings : cabac=1 / ref=4 / deblock=1:-3:-3 / analyse=0x3:0x113 / me=umh / subme=9 / psy=1 / psy_rd=1,00:0,00 / mixed_ref=1 / me_range=32 / chroma_me=1 / trellis=2 / 8x8dct=1 / cqm=0 / deadzone=21,11 / fast_pskip=1 / chroma_qp_offset=-2 / threads=6 / lookahead_threads=1 / sliced_threads=0 / nr=0 / decimate=1 / interlaced=tff / bluray_compat=0 / constrained_intra=0 / bframes=10 / b_pyramid=2 / b_adapt=2 / b_bias=10 / direct=2 / weightb=1 / open_gop=0 / weightp=0 / keyint=230 / keyint_min=23 / scenecut=40 / intra_refresh=0 / rc_lookahead=60 / rc=crf / mbtree=1 / crf=16,0 / qcomp=0,60 / qpmin=0 / qpmax=69 / qpstep=4 / ip_ratio=1,40 / aq=1:1,00
Audio #1
ID : 2
Format : AC-3
Format/Info : Audio Coding 3
Mode extension : CM (complete main)
Format settings, Endianness : Big
Codec ID : A_AC3
Duration : 1h 28mn
Bit rate mode : Constant
Bit rate : 640 Kbps
Channel(s) : 6 channels
Channel positions : Front: L C R, Side: L R, LFE
Sampling rate : 48.0 KHz
Bit depth : 16 bits
Compression mode : Lossy
Stream size : 407 MiB (6%)
Language : Russian
Default : Yes
Forced : No
Audio #2
ID : 3
Format : DTS
Format/Info : Digital Theater Systems
Mode : 16
Format settings, Endianness : Big
Codec ID : A_DTS
Duration : 1h 28mn
Bit rate mode : Constant
Bit rate : 1 509 Kbps
Channel(s) : 6 channels
Channel positions : Front: L C R, Side: L R, LFE
Sampling rate : 48.0 KHz
Bit depth : 24 bits
Compression mode : Lossy
Stream size : 959 MiB (14%)
Language : English
Default : No
Forced : No
Text
ID : 4
Format : PGS
Muxing mode : zlib
Codec ID : S_HDMV/PGS
Codec ID/Info : The same subtitle format used on BDs/HD-DVDs
Language : English
Default : Yes
Forced : No
Благодарности релизеру (13)

Торрент:

Статус:

Размер:

Зарегистрирован   [ 2015-08-10 08:18 ]

* не проверено

6.61 GB

 
 Мнение о фильме (3)





Sergey81, Дайте скорость, плиз!
 

По смотрели с детьми! Мультик шедевр! 3D - впечатлило! На высшем уровне! Спасибо!
 

Дайте скорость, просим