Торренты   
 
 

 

Гнездо дракона / Dragon Nest: Warriors' Dawn (Юэфэн Сонг / Yuefeng Song) [2014 г., Anamorph OverUnder]

Нравятся ли Вам релизы Sergey81

Нравятся, все устраивает   58%  58%  [ 14 ]
Пусть будет файл побольше, но зато картинка качественней   29%  29%  [ 7 ]
Слишком большие по размеру файлы, меня бы устроили и поменьше размером   12%  12%  [ 3 ]
Не устраивает качество   0%  0%  [ 0 ]

Всего проголосовало : 24

Рейтинг 3D:
17 голосов
8.0
Рейтинг фильма:
16 голосов
6.7
 
Вы должны быть авторизированы,
чтобы ставить оценки


Гнездо дракона / Dragon Nest: Warriors' Dawn
Год выпуска: 2014
Страна: Китай
Жанр: Мультфильм, фэнтези, приключения
Продолжительность: 01:27:25
Перевод: Профессиональный (полное дублирование)
Субтитры: нет
Режиссер: Юэфэн Сонг / Yuefeng Song
В ролях: Цзяо Сюй, Гуаньлин Джи, Йинг Хуан, Давей Шен, Сянлонг Менг, Йе Сунь, Тиан Джин, Хон Шан, Цзытун Ся, Блайт Оффарт
Роли озвучивали: Ольга Голованова, Нина Александрова, Прохор Чеховской, Михаил Данилюк, Александр Воронов
Описание: Кто бы мог подумать, что всегда неуклюжий, но несомненно талантливый парень станет великим героем, который спасет свою красивейшую планету от пробудившегося зла?
Много лет, пока легендарный Черный дракон спал, земля Алтера хранила хрупкий мир между расами людей, эльфов и неведомых нашему миру животных. Когда же он пробудился, охваченные ужасом жители были вынуждены бежать сквозь остров в попытке найти спасение…
Наш герой Ламберт в компании своих пушистых компаньонов отправляется в путь полный веселых развлечений и приключений, встречая настоящих друзей и любовь в лице прекрасной эльфийской девочки. Объединившись, они находят тайную дорогу к пещере дракона, а юный воин выполняет возложенную на него важнейшую миссию: он входит в доверие к Черному Дракону, чтобы с честью и юмором выйти победителем.

Качество: BDRip
Формат: MKV
Формат 3D: Anamorph OverUnder
Видео: h.264 / 1920х1036 10.5Mbps / 23.976 fps / 16:9 / High Profile 4.1
Аудио:
1. Русский - AC3 / Ch5.1 / 640 kbps
2. Английский - AC3 / Ch5.1 / 640 kbps

Media Info

Video
ID : 1
Format : AVC
Format/Info : Advanced Video Codec
Format profile : High@L4.1
Format settings, CABAC : Yes
Format settings, ReFrames : 4 frames
Codec ID : V_MPEG4/ISO/AVC
Duration : 1h 27mn
Bit rate : 10.5 Mbps
Width : 1 920 pixels
Height : 1 036 pixels
Display aspect ratio : 1.85:1
Frame rate mode : Constant
Frame rate : 23.976 fps
Color space : YUV
Chroma subsampling : 4:2:0
Bit depth : 8 bits
Scan type : Progressive
Bits/(Pixel*Frame) : 0.220
Stream size : 6.42 GiB (87%)
Writing library : x264 core 142
Encoding settings : cabac=1 / ref=4 / deblock=1:-3:-3 / analyse=0x3:0 / me=umh / subme=9 / psy=0 / mixed_ref=1 / me_range=16 / chroma_me=1 / trellis=2 / 8x8dct=1 / cqm=0 / deadzone=21,11 / fast_pskip=1 / chroma_qp_offset=0 / threads=4 / lookahead_threads=1 / sliced_threads=0 / nr=0 / decimate=1 / interlaced=0 / bluray_compat=0 / constrained_intra=0 / bframes=6 / b_pyramid=0 / b_adapt=2 / b_bias=0 / direct=1 / weightb=1 / open_gop=0 / weightp=0 / keyint=24 / keyint_min=13 / scenecut=40 / intra_refresh=0 / rc=crf / mbtree=0 / crf=18.0 / qcomp=0.60 / qpmin=0 / qpmax=69 / qpstep=4 / ip_ratio=1.40 / pb_ratio=1.30 / aq=1:1.00
Default : Yes
Forced : No
Audio #1
ID : 2
Format : AC-3
Format/Info : Audio Coding 3
Mode extension : CM (complete main)
Format settings, Endianness : Big
Codec ID : A_AC3
Duration : 1h 27mn
Bit rate mode : Constant
Bit rate : 640 Kbps
Channel(s) : 6 channels
Channel positions : Front: L C R, Side: L R, LFE
Sampling rate : 48.0 KHz
Bit depth : 16 bits
Compression mode : Lossy
Stream size : 400 MiB (5%)
Language : Russian
Default : Yes
Forced : No
Audio #2
ID : 4
Format : AC-3
Format/Info : Audio Coding 3
Mode extension : CM (complete main)
Format settings, Endianness : Big
Codec ID : A_AC3
Duration : 1h 27mn
Bit rate mode : Constant
Bit rate : 640 Kbps
Channel(s) : 6 channels
Channel positions : Front: L C R, Side: L R, LFE
Sampling rate : 48.0 KHz
Bit depth : 16 bits
Compression mode : Lossy
Stream size : 400 MiB (5%)
Language : English
Default : No
Forced : No

Скриншоты





26.08 Релиз обновлен - выложен новый рип с более качественно подогнанной аудиодорогой
(не забудь проголосовать вверху страницы!)
Благодарности релизеру (26)

Торрент:

Статус:

Размер:

Зарегистрирован   [ 2015-08-26 04:25 ]

* не проверено

7.89 GB

 
 Мнение о фильме (26)

1, 2  След.






ну наконец-то! СПАСИБО!
 

Да пожалуйста!))
 

...И тут со звуком беда...видеоряд разный...Sergey81, обновление релиза ждать?
 

killer29, я сам весь фильм не смотрел. Блюрик скачал с рутрекера, понадеявшись на тамошних модеров. А до твоего сообщения мне 4 человека спасибо сказали... Странно...
 

...
Собственно говоря, чудес не бывает... дубляж и мимика губ всё равно иногда не совпадают... особенно хорошо видно на 01:18:20, когда паренёк говорит - "Ошибаешься! Я тебя прикончу!"...В 2D-версии этого глюка нет - видеоряд разный.
 

killer29, я сам весь фильм не смотрел. Блюрик скачал с рутрекера, понадеявшись на тамошних модеров. А до твоего сообщения мне 4 человека спасибо сказали...
Так я тебе тоже спасибки каждый раз нажимаю...
 

killer29, проверю вечером. Постараюсь исправить или прикрою раздачу.
 

Sergey81,
нужно ждать звук подогнанный под релиз 3Д
 

killer29, я по поводу "спасибо" имел ввиду что раз они нажали "спасибо" то значит всё ок? Или они несмотря фильм нажимали?
 

killer29, а откуда у тебя цитата s.v.o?
 

ну не знаю...я тоже нажимаю спасибки не посмотрев фильм....так сказать за старания...ну а потом уже пишу отзывы если что-то не так...Вроде S.V.O. обновил торрент, но у него
Аудио 1: Russian / DTS-HD Master Audio / 5.1 / 48 kHz / 2199 kbps / 16-bit (DTS Core: 5.1 / 48 kHz / 1509 kbps / 16-bit)
 

killer29, а откуда у тебя цитата s.v.o?
с рутрекера
 

killer29, я когда скачивал bd3d - то там уже была эта дорога. Щас схожу посмотрю что почем... хоккей с мячом...
 

killer29, Проверил русскую дорогу - да, между артикуляцией и дубляжом есть рассинхрон. Ну что, прикрыть раздачу или пусть качают?
 

Sergey81,
Пусть качают...кто-то этого даже не заметит...а на Птице ожидают обновление релиза...там вообще попа
"Это первый мой образ BD3D диска который не воспроизводится в 3D.
Win7x64, TMT6, Catalyst 11.9"
"ps релиз будет обновлен за день два."
На рутрекере rainbow.n Удалил с раздачи свой брюлик на время
 

killer29, ага, я заметил, что он удалил. Там кстати всё то же самое. И если честно, если бы ты о рассинхроне не написал бы - я б наверное и не заметил. Потому что нестыковка только в голосе людей и артикуляции губ, а все остальные звуки звучат вовремя, согласно картинке.
 

Качнул с кинозала горизонталку от Мастер5 - выдернул оттуда дорогу...прикрутил ее к твоему релизу...все тоже самое... ...так что ждемс...
 

killer29, да вполне смотрибельно! Пусть люди качают, детишки будут в восторге. Мои племянники (12 и 10 лет) уже посмотрели, им очень понравилось.
 

Русский БД 2Д и французский БД 3Д срендерены совершенно по-разному. Простыми методами рассинхрон невозможно устранить (если вообще возможно).
Даже видеоряд местами нарисован совершенно заново.
 

Sergey81, в звуках тоже сильный рассинхрон.
 

Страница 1 из 2

1, 2  След.