Торренты   
 
 


Гнездо дракона в 3Д / Dragon Nest: Warriors' Dawn 3D (Юэфэн Сонг / Yuefen) [2014, Мультфильм, Фэнтези, Приключения, Семейный, BDrip, 1080p]Full OverUnder / Вертикальная стереопара

Рейтинг 3D:
2 голосов
5.5
Рейтинг фильма:
2 голосов
8.0
 
Вы должны быть авторизированы,
чтобы ставить оценки


Гнездо дракона / Dragon Nest: Warriors' Dawn
Год выпуска: 2014
Страна: Китай (Huaxia Film, HG Entertainment, Mili Pictures)
Жанр: Мультфильм, Фэнтези, Приключения, Семейный
Продолжительность: 01:27:25
Перевод: Профессиональный (дублированный)
Русские субтитры: нет
Режиссер: Юэфэн Сонг / Yuefeng Song
В ролях: Цзяо Сюй, Гуаньлин Джи, Йинг Хуан, Давей Шен, Сянлонг Менг, Йе Сунь, Тиан Джин, Хон Шан, Цзытун Ся, Блайт Оффарт
Роли озвучивали: Ольга Голованова, Нина Александрова, Прохор Чеховской, Михаил Данилюк, Александр Воронов
Описание: Кто бы мог подумать, что всегда неуклюжий, но несомненно талантливый парень станет великим героем, который спасет свою красивейшую планету от пробудившегося зла?
Много лет, пока легендарный Черный дракон спал, земля Алтера хранила хрупкий мир между расами людей, эльфов и неведомых нашему миру животных. Когда же он пробудился, охваченные ужасом жители были вынуждены бежать сквозь остров в попытке найти спасение…
Наш герой Ламберт в компании своих пушистых компаньонов отправляется в путь полный веселых развлечений и приключений, встречая настоящих друзей и любовь в лице прекрасной эльфийской девочки. Объединившись, они находят тайную дорогу к пещере дракона, а юный воин выполняет возложенную на него важнейшую миссию, чтобы с честью и юмором выйти победителем.
Сэмпл: http://sendfile.su/1151247
Качество: BDrip
Контейнер: MKV
Формат 3D: OverUnder / Вертикальная стереопара
Порядок ракурсов: левый ракурс первый
Видео кодек: x264
Аудио кодек: DTS
Видео: AVC / High@L5.0 / 23,976 fps / 1920х2160 / 15,1 Мбит/сек
Аудио: Русский / DTS / 48 KHz / 5.1 ch / 1510 Кбит/сек
Аудио 2: Английский / AC3 / 48 KHz / 5.1 ch / 640 Кбит/сек
Релиз группы: ВНИМАНИЕ ! На встроенных ТВ-плеерах работать не будет!!!
ТВ Samsung в названии которого есть надпись Ultra HD , и LG Ultra HD 800 серии(исключение: LG UB850v не воспроизводит),Xiaomi Mi TV 2 воспроизводят полные стереопары встроенными плеерами
Железные плееры на которых воспроизводятся полные стереопары:Popcorn C-200 , Dune HD Smart D1 , Dune HD DUO , Dune HD Smart H1 , Dune HD Smart B1 , Dune HD Max , Dune HD TV-303D , Dune HD Base 3D, Philips HMP7001, Aura HD

MediaInfo

Общее
Уникальный идентификатор : 248724969101380184196140022454755444761 (0xBB1EAFC46C108ACA83DD21A933D6C819)
Полное имя : E:\закачки\Dragon Nest Warriors Dawn.Rip by SeRoGa00.mkv
Формат : Matroska
Версия формата : Version 2
Размер файла : 11,1 Гбайт
Продолжительность : 1 ч. 27 м.
Режим общего битрейта : Переменный
Общий поток : 18,1 Мбит/сек
Дата кодирования : UTC 2015-09-02 18:38:16
Программа кодирования : mkvmerge v3.4.0 ('Rapunzel') сборка от May 15 2010 09:38:20
Библиотека кодирования : libebml v0.8.0 + libmatroska v0.9.0
Видео
Идентификатор : 1
Формат : AVC
Формат/Информация : Advanced Video Codec
Профиль формата : High@L5.0
Параметр CABAC формата : Да
Параметр ReFrames формата : 4 кадра
Идентификатор кодека : V_MPEG4/ISO/AVC
Продолжительность : 1 ч. 27 м.
Битрейт : 15,1 Мбит/сек
Ширина : 1920 пикселей
Высота : 2160 пикселей
Соотношение сторон : 0,889
Частота кадров : 23,976 кадра/сек
Цветовое пространство : YUV
Субдискретизация насыщенности : 4:2:0
Битовая глубина : 8 бит
Тип развёртки : Прогрессивная
Бит/(Пиксели*Кадры) : 0.152
Размер потока : 9,22 Гбайт (83%)
Заголовок : Rip by SeRoGa00
Библиотека кодирования : x264 core 142 r2479 dd79a61
Настройки программы : cabac=1 / ref=4 / deblock=1:-3:-3 / analyse=0x3:0x113 / me=umh / subme=9 / psy=1 / psy_rd=1.00:0.15 / mixed_ref=1 / me_range=24 / chroma_me=1 / trellis=2 / 8x8dct=1 / cqm=0 / deadzone=21,11 / fast_pskip=1 / chroma_qp_offset=-3 / threads=9 / lookahead_threads=1 / sliced_threads=0 / nr=0 / decimate=1 / interlaced=0 / bluray_compat=0 / constrained_intra=0 / bframes=8 / b_pyramid=2 / b_adapt=2 / b_bias=0 / direct=3 / weightb=1 / open_gop=0 / weightp=2 / keyint=250 / keyint_min=23 / scenecut=40 / intra_refresh=0 / rc_lookahead=60 / rc=crf / mbtree=1 / crf=18.0 / qcomp=0.60 / qpmin=10 / qpmax=69 / qpstep=4 / vbv_maxrate=30000 / vbv_bufsize=30000 / crf_max=0.0 / nal_hrd=none / filler=0 / ip_ratio=1.40 / aq=1:1.00
Язык : English
Default : Нет
Forced : Нет
Аудио #1
Идентификатор : 2
Формат : DTS
Формат/Информация : Digital Theater Systems
Профиль формата : MA / Core
Идентификатор кодека : A_DTS
Продолжительность : 1 ч. 27 м.
Вид битрейта : Переменный
Битрейт : 1999 Кбит/сек / 1510 Кбит/сек
Каналы : 6 каналов
Расположение каналов : Front: L C R, Side: L R, LFE
Частота : 48,0 КГц
Битовая глубина : 16 бит
Метод сжатия : Без потерь / Lossy
Язык : Russian
Default : Да
Forced : Нет
Аудио #2
Идентификатор : 3
Формат : AC-3
Формат/Информация : Audio Coding 3
Расширение режима : CM (complete main)
Параметр Endianness формата : Big
Идентификатор кодека : A_AC3
Продолжительность : 1 ч. 27 м.
Вид битрейта : Постоянный
Битрейт : 640 Кбит/сек
Каналы : 6 каналов
Расположение каналов : Front: L C R, Side: L R, LFE
Частота : 48,0 КГц
Битовая глубина : 16 бит
Метод сжатия : С потерями
Размер потока : 400 Мбайт (4%)
Язык : English
Default : Нет
Forced : Нет

Скриншоты


Благодарности релизеру (0)

Торрент:

Статус:

Размер:

Зарегистрирован   [ 2015-09-03 16:03 ]

* не проверено

11.05 GB