Торренты   
 
 

 

Полтергейст / Poltergeist (Гил Кинан / Gil Kenan) [2015 г., Anamorph OverUnder]

Рейтинг 3D:
21 голосов
7.5
Рейтинг фильма:
23 голосов
6.4
 
Вы должны быть авторизированы,
чтобы ставить оценки


Полтергейст / Poltergeist
Год выпуска: 2015
Страна: США, Канада
Жанр: ужасы, триллер
Продолжительность: 01:33:40
Перевод: Профессиональный (полное дублирование)
Режиссер: Гил Кинан / Gil Kenan
В ролях: Сэм Рокуэлл, Розмари ДеУитт, Саксон Шарбино, Кайл Кэтлетт, Кеннеди Клементс, Джаред Харрис, Джейн Адамс, Сьюзэн Хэйард, Николас Браун, Карен Ивани.
Описание: Эрик и Эми Боуэн вместе с тремя детьми присматривают для покупки новый дом. Они находят подходящий для них дом, недавно выставленный на продажу, и переезжают.
В первую ночь они слышат странные звуки в стенах... В скором времени члены семьи узнают, что дом был построен на месте старого кладбища, и когда дом строили, перевезли только надгробия, а не тела.
И когда страшные призраки забирают младшую дочь, семье приходится объединиться, чтобы спасти ее...

Качество: BdRip
Контейнер: MKV
Формат 3D: Anamorph OverUnder
Видео: h.264 1920x1080 18.3 Mbps
Аудио:
1. Русский - AC3 / Ch5.1 / 640 kbps
2. Английский - AC3 / Ch5.1 / 640 kbps
Субтитры:
1. Русские - полные (PGS)
2. Английские - полные (PGS)

Скриншоты



Media Info

Video
ID : 1
Format : AVC
Format/Info : Advanced Video Codec
Format profile : High@L4.1
Format settings, CABAC : Yes
Format settings, ReFrames : 4 frames
Format settings, GOP : M=7, N=24
Codec ID : V_MPEG4/ISO/AVC
Duration : 1h 33mn
Bit rate : 18.5 Mbps
Width : 1 920 pixels
Height : 1 080 pixels
Display aspect ratio : 16:9
Frame rate mode : Constant
Frame rate : 23.976 fps
Color space : YUV
Chroma subsampling : 4:2:0
Bit depth : 8 bits
Scan type : Progressive
Bits/(Pixel*Frame) : 0.372
Stream size : 12.1 GiB (92%)
Writing library : x264 core 142
Encoding settings : cabac=1 / ref=4 / deblock=1:-3:-3 / analyse=0x3:0x133 / me=umh / subme=9 / psy=1 / psy_rd=1.00:1.00 / mixed_ref=1 / me_range=16 / chroma_me=1 / trellis=2 / 8x8dct=1 / cqm=0 / deadzone=21,11 / fast_pskip=1 / chroma_qp_offset=-4 / threads=4 / lookahead_threads=1 / sliced_threads=0 / nr=0 / decimate=1 / interlaced=0 / bluray_compat=0 / constrained_intra=0 / bframes=6 / b_pyramid=0 / b_adapt=2 / b_bias=0 / direct=1 / weightb=1 / open_gop=0 / weightp=2 / keyint=24 / keyint_min=13 / scenecut=40 / intra_refresh=0 / rc=crf / mbtree=0 / crf=18.0 / qcomp=0.60 / qpmin=0 / qpmax=69 / qpstep=4 / ip_ratio=1.40 / pb_ratio=1.30 / aq=1:1.00
Default : Yes
Forced : No
Color primaries : BT.709
Transfer characteristics : BT.709
Matrix coefficients : BT.709
Audio #1
ID : 2
Format : AC-3
Format/Info : Audio Coding 3
Mode extension : CM (complete main)
Format settings, Endianness : Big
Codec ID : A_AC3
Duration : 1h 33mn
Bit rate mode : Constant
Bit rate : 640 Kbps
Channel(s) : 6 channels
Channel positions : Front: L C R, Side: L R, LFE
Sampling rate : 48.0 KHz
Bit depth : 16 bits
Compression mode : Lossy
Stream size : 429 MiB (3%)
Language : Russian
Default : Yes
Forced : No
Audio #2
ID : 3
Format : AC-3
Format/Info : Audio Coding 3
Mode extension : CM (complete main)
Format settings, Endianness : Big
Codec ID : A_AC3
Duration : 1h 33mn
Bit rate mode : Constant
Bit rate : 640 Kbps
Channel(s) : 6 channels
Channel positions : Front: L C R, Side: L R, LFE
Sampling rate : 48.0 KHz
Bit depth : 16 bits
Compression mode : Lossy
Stream size : 429 MiB (3%)
Language : English
Default : No
Forced : No
Text #1
ID : 4
Format : PGS
Codec ID : S_HDMV/PGS
Codec ID/Info : The same subtitle format used on BDs/HD-DVDs
Language : English
Default : No
Forced : No
Text #2
ID : 5
Format : PGS
Codec ID : S_HDMV/PGS
Codec ID/Info : The same subtitle format used on BDs/HD-DVDs
Language : Russian
Default : No
Forced : No
Благодарности релизеру (18)

Торрент:

Статус:

Размер:

Зарегистрирован   [ 2015-09-20 10:11 ]

* не проверено

13.19 GB

 
 Мнение о фильме (12)





3D лучше чем в Мстителях!
 

До чего же скучный фильм. Может детям бы и понравилось. Смотрели втроем. Пришли ко мнению, что фильм полный отстой.
 

зачетный фильм не тупите!
Очень хорошо!
 

Нормальный фильмец!
 

хороший фильм
 

А шо, отличный фильм, смешной и страшный одновременно. Особенно порадовала репка в конце)
И 3Д факт, великолепное.
Как по мне, поинтересней, чем Терминатор Генезис)))
 

это же 80-х годов фильм... ремейк что ли сделали?
 

Да,это ремейк.
 

а качество какое в 3д?
 

а качество какое в 3д?
Читаем Media Info и кометы выше
 

Спасибо и удачи
 

не качает