Торренты   
 
 


Мир Юрского периода 3D / Jurassic World 3D (Колин Треворроу) [2015 г., Anamorph OverUnder]

Рейтинг 3D:
6 голосов
6.8
Рейтинг фильма:
6 голосов
6.7
 
Вы должны быть авторизированы,
чтобы ставить оценки


Мир Юрского периода 3D / Jurassic World 3D
Год выпуска: 2015
Страна: США
Жанр: Фантастика, приключения
Продолжительность: 02:04:23
Перевод: Профессиональный (полное дублирование)
Режиссер: Колин Треворроу
В ролях: Крис Прэтт, Брайс Даллас Ховард, Ник Дж. Робинсон, Тай Симпкинс, Винсент Д`Онофрио, Ирфан Кхан, Омар Си, Б. Д. Вонг, Джейк Джонсон, Джуди Грир, Кэти МакГрат, Лорен Лапкус, Брайан Ти, Энди Бакли, Эрик Эдельштейн, Кортни Дж. Кларк, Колби Бутман-Шепарт, Джимми Фэллон, Джеймс ДюМонт, Мэттью Бурк
Описание: Действие происходит через 22 года после событий «Парка Юрского периода». На острове Нублар функционирует парк, задуманный Джоном Хэммондом. Но к этому времени посещаемость уже начинает падать, и компания — владелец парка решает открыть новый аттракцион, чтобы привлечь посетителей. И вот снова тысячи людей спешат увидеть Мир Юрского периода, но безопасное на первый взгляд развлечение может обернуться угрозой для всего человечества...
Доп. информация: Огромная благодарность Мастер5 за релиз
Формат 3D: Anamorph OverUnder
Видео: MPEG-4 AVC, 9036 Кбит/с, 1920x1080
Видео: Русский (AC3, 6 ch, 640 Кбит/с), (DTS, 6 ch, 768 Кбит/с), английский (DTS, 6 ch, 1510 Кбит/с)
Субтитры: Русские, английские, украинские

Скриншоты




Media Info

General
Unique ID : 207683513348621398069987401812059201389 (0x9C3E63C56F4D8C43B53B1006DA119F6D)
Complete name : D:\uTorrent\Mir.Urskogo.perioda.2015.1080p.3D.BDRip.Half-OU.mkv
Format : Matroska
Format version : Version 4 / Version 2
File size : 10.4 GiB
Duration : 2h 4mn
Overall bit rate : 12.0 Mbps
Encoded date : UTC 2015-09-27 09:11:33
Writing application : mkvmerge v8.2.0 ('World of Adventure') 64bit
Writing library : libebml v1.3.1 + libmatroska v1.4.2
Attachements : Jurassic-World.jpg
DURATION : 01:53:44.108000000
NUMBER_OF_FRAMES : 1487
NUMBER_OF_BYTES : 46110
_STATISTICS_WRITING_APP : mkvmerge v8.2.0 ('World of Adventure') 64bit
_STATISTICS_WRITING_DATE_UT : 2015-09-27 09:11:33
_STATISTICS_TAGS : BPS DURATION NUMBER_OF_FRAMES NUMBER_OF_BYTES
Video
ID : 1
Format : AVC
Format/Info : Advanced Video Codec
Format profile : High@L4.1
Format settings, CABAC : Yes
Format settings, ReFrames : 4 frames
Codec ID : V_MPEG4/ISO/AVC
Duration : 2h 4mn
Bit rate : 9 037 Kbps
Width : 1 920 pixels
Height : 1 080 pixels
Display aspect ratio : 16:9
Frame rate mode : Constant
Frame rate : 23.976 fps
Color space : YUV
Chroma subsampling : 4:2:0
Bit depth : 8 bits
Scan type : Progressive
Bits/(Pixel*Frame) : 0.182
Stream size : 7.65 GiB (74%)
Writing library : x264 core 148 r2597 e86f3a1
Encoding settings : cabac=1 / ref=4 / deblock=1:0:0 / analyse=0x3:0x133 / me=umh / subme=7 / psy=1 / psy_rd=1.00:0.00 / mixed_ref=1 / me_range=16 / chroma_me=1 / trellis=1 / 8x8dct=1 / cqm=0 / deadzone=21,11 / fast_pskip=0 / chroma_qp_offset=-1 / threads=18 / lookahead_threads=3 / sliced_threads=0 / nr=0 / decimate=1 / interlaced=0 / bluray_compat=0 / constrained_intra=0 / bframes=3 / b_pyramid=2 / b_adapt=1 / b_bias=0 / direct=3 / weightb=1 / open_gop=0 / weightp=2 / keyint=240 / keyint_min=23 / scenecut=40 / intra_refresh=0 / rc_lookahead=50 / rc=2pass / mbtree=1 / bitrate=9037 / ratetol=1.0 / qcomp=0.60 / qpmin=10 / qpmax=51 / qpstep=4 / cplxblur=20.0 / qblur=0.5 / ip_ratio=1.40 / aq=1:1.00
Language : English
Default : Yes
Forced : No
DURATION : 02:04:23.415000000
NUMBER_OF_FRAMES : 178943
NUMBER_OF_BYTES : 8429973854
_STATISTICS_WRITING_APP : mkvmerge v8.2.0 ('World of Adventure') 64bit
_STATISTICS_WRITING_DATE_UT : 2015-09-27 09:11:33
_STATISTICS_TAGS : BPS DURATION NUMBER_OF_FRAMES NUMBER_OF_BYTES
Audio #1
ID : 2
Format : DTS
Format/Info : Digital Theater Systems
Mode : 16
Format settings, Endianness : Big
Codec ID : A_DTS
Duration : 2h 4mn
Bit rate mode : Constant
Bit rate : 768 Kbps
Channel(s) : 6 channels
Channel positions : Front: L C R, Side: L R, LFE
Sampling rate : 48.0 KHz
Bit depth : 24 bits
Compression mode : Lossy
Stream size : 683 MiB (6%)
Title : DTS / 5.1 / 48 kHz / 768 kbps / Licence BD CEE
Language : Russian
Default : Yes
Forced : No
Audio #2
ID : 3
Format : AC-3
Format/Info : Audio Coding 3
Mode extension : CM (complete main)
Format settings, Endianness : Big
Codec ID : A_AC3
Duration : 2h 4mn
Bit rate mode : Constant
Bit rate : 640 Kbps
Channel(s) : 6 channels
Channel positions : Front: L C R, Side: L R, LFE
Sampling rate : 48.0 KHz
Compression mode : Lossy
Stream size : 569 MiB (5%)
Title : AC3 / 5.1 / 48 kHz / 640 kbps / Licence BD CEE
Language : Russian
Default : No
Forced : No
Audio #3
ID : 4
Format : DTS
Format/Info : Digital Theater Systems
Mode : 16
Format settings, Endianness : Big
Codec ID : A_DTS
Duration : 2h 4mn
Bit rate mode : Constant
Bit rate : 1 509 Kbps
Channel(s) : 6 channels
Channel positions : Front: L C R, Side: L R, LFE
Sampling rate : 48.0 KHz
Bit depth : 24 bits
Compression mode : Lossy
Stream size : 1.31 GiB (13%)
Title : DTS / 5.1 / 48 kHz / 1510 kbps / Original
Language : English
Default : No
Forced : No
Text #1
ID : 5
Format : UTF-8
Codec ID : S_TEXT/UTF8
Codec ID/Info : UTF-8 Plain Text
Title : Forced
Language : Russian
Default : Yes
Forced : No
Text #2
ID : 6
Format : UTF-8
Codec ID : S_TEXT/UTF8
Codec ID/Info : UTF-8 Plain Text
Title : Full
Language : Russian
Default : No
Forced : No
Text #3
ID : 7
Format : UTF-8
Codec ID : S_TEXT/UTF8
Codec ID/Info : UTF-8 Plain Text
Title : Full
Language : Ukrainian
Default : No
Forced : No
Text #4
ID : 8
Format : UTF-8
Codec ID : S_TEXT/UTF8
Codec ID/Info : UTF-8 Plain Text
Language : English
Default : No
Forced : No
Menu
00:00:00.000 : en:00:00:00.000
00:06:59.169 : en:00:06:59.169
00:11:01.828 : en:00:11:01.828
00:18:28.441 : en:00:18:28.441
00:25:34.867 : en:00:25:34.867
00:31:20.837 : en:00:31:20.837
00:39:23.861 : en:00:39:23.861
00:44:07.854 : en:00:44:07.854
00:48:57.226 : en:00:48:57.226
00:55:51.056 : en:00:55:51.056
01:01:21.344 : en:01:01:21.344
01:09:50.561 : en:01:09:50.561
01:15:25.479 : en:01:15:25.479
01:23:51.860 : en:01:23:51.860
01:30:14.701 : en:01:30:14.701
01:36:45.425 : en:01:36:45.425
01:41:15.653 : en:01:41:15.653
01:47:35.282 : en:01:47:35.282
01:53:06.029 : en:01:53:06.029
01:55:37.556 : en:01:55:37.556
Благодарности релизеру (10)

Торрент:

Статус:

Размер:

Зарегистрирован   [ 2015-09-27 18:01 ]

* не проверено

10.39 GB