Торренты   
 
 


Мир Юрского периода в 3Д / Jurassic World 3D (Колин Треворроу / Colin Trevorrow) [2015, Фантастика, Приключения, Боевик, BDrip] Anamorph OverUnder / Вертикальная анаморфная стереопара

Рейтинг 3D:
12 голосов
6.4
Рейтинг фильма:
14 голосов
5.9
 
Вы должны быть авторизированы,
чтобы ставить оценки


-Мир Юрского периода
Jurassic World

Год выпуска: 2015
Страна: США, Китай
Жанр: Фантастика, Приключения, Боевик
Продолжительность: 02:04:23
Перевод: Профессиональный дублированный (ЛИЦЕНЗИЯ)
Режиссер: Колин Треворроу / Colin Trevorrow-Роли исполняли (дублировали):

Owen - Крис Пратт (Сергей Смирнов)
Claire - Брайс Даллас Ховард (Ирина Киреева)
Zach - Ник Дж. Робинсон (Лев Аксельрод)
Gray - Тай Симпкинс (Михаил Маневич)
Hoskins - Винсент Д’Онофрио (Сергей Чихачев)
Masrani - Ирфан Кхан (Даниил Эльдаров)
Barry - Омар Си (Илья Исаев)
Dr. Henry Wu - Б.Д. Вонг (Радик Мухаметзянов)
Lowery - Джейк Джонсон (Станислав Тикунов)
Karen - Джуди Грир (Алена Фалалеева)
Zara - Кэти МакГрат (Полина Щербакова)
-Описание: Тысячи людей спешат увидеть Мир Юрского периода, но безопасное на первый взгляд развлечение может обернуться угрозой для их жизней…-Качество: BDRip (by Ash61)
Контейнер: MKV
Формат 3D: Half OverUnder / Вертикальная анаморфная стереопара
Порядок ракурсов: левый ракурс первый
Видео: AVC / 23,976 fps / 1920х1080p / 19.8 Mbps
Аудио:
#1 - Русский / AC3 / 48 KHz / 5.1 ch / 640 Kbps (Дубляж - BD 3D Eur)
#2 - Английский / AC3 / 48 KHz / 5.1 ch / 640 Kbps (Original - BD 3D Eur)
Субтитры: (SRT)
Вшитые (softsub):
#1 - Русские Форсированные [BD 3D CEE] (включены по умолчанию)
#2 - Русские Полные [BD 3D CEE]
#3 - Украинские Полные [BD 3D CEE]
#4 - English SDH [BD 3D CEE]
Внешние UTF-8
#1 - Русские Форсированные [BD 3D CEE] (включены по умолчанию)

Скриншоты :

[img] [/img]
[img] [/img]
[img] [/img]
-

Media Info

Общее
Уникальный идентификатор : 180901974754767305600888117297146411130 (0x881873F8FB24C4AB8F8B99D2AD4AB87A)
Полное имя : D:\Трекер\Exodus.GodsAndKings(2014)3D-halfOU(Ash61)\Exodus.GodsAndKings(2014)3D-halfOU(Ash61).mkv
Формат : Matroska
Версия формата : Version 4 / Version 2
Размер файла : 13,6 Гбайт
Продолжительность : 2 ч. 30 м.
Общий поток : 13,0 Мбит/сек
Название фильма : Исход: Цари и боги / Exodus: Gods and Kings (2014) 3D
Дата кодирования : UTC 2015-04-02 08:05:57
Программа кодирования : mkvmerge v6.8.0 ('Theme for Great Cities') 64bit built on Mar 2 2014 21:34:26
Библиотека кодирования : libebml v1.3.0 + libmatroska v1.4.1
Видео
Идентификатор : 1
Формат : AVC
Формат/Информация : Advanced Video Codec
Профиль формата : High@L4.1
Параметр CABAC формата : Да
Параметр ReFrames формата : 4 кадра
Идентификатор кодека : V_MPEG4/ISO/AVC
Продолжительность : 2 ч. 30 м.
Битрейт : 11,4 Мбит/сек
Ширина : 1920 пикселей
Высота : 1080 пикселей
Соотношение сторон : 16:9
Режим частоты кадров : Постоянный
Частота кадров : 23,976 кадра/сек
Цветовое пространство : YUV
Субдискретизация насыщенности : 4:2:0
Битовая глубина : 8 бит
Тип развёртки : Прогрессивная
Бит/(Пиксели*Кадры) : 0.229
Размер потока : 11,9 Гбайт (88%)
Заголовок : BDRip by Ash61
Библиотека кодирования : x264 core 138 r2358 9e941d1
Настройки программы : cabac=1 / ref=4 / deblock=1:-3:-3 / analyse=0x3:0x113 / me=umh / subme=10 / psy=1 / psy_rd=1.00:0.00 / mixed_ref=1 / me_range=32 / chroma_me=1 / trellis=2 / 8x8dct=1 / cqm=0 / deadzone=21,11 / fast_pskip=1 / chroma_qp_offset=-2 / threads=12 / lookahead_threads=3 / sliced_threads=0 / nr=0 / decimate=1 / interlaced=0 / bluray_compat=0 / constrained_intra=0 / bframes=10 / b_pyramid=2 / b_adapt=2 / b_bias=0 / direct=3 / weightb=1 / open_gop=0 / weightp=2 / keyint=250 / keyint_min=23 / scenecut=40 / intra_refresh=0 / rc_lookahead=60 / rc=crf / mbtree=1 / crf=17.0 / qcomp=0.70 / qpmin=0 / qpmax=69 / qpstep=4 / vbv_maxrate=40000 / vbv_bufsize=30000 / crf_max=0.0 / nal_hrd=none / frame-packing=4 / ip_ratio=1.40 / aq=1:0.70
Язык : English
Default : Да
Forced : Нет
Аудио #1
Идентификатор : 2
Формат : AC-3
Формат/Информация : Audio Coding 3
Расширение режима : CM (complete main)
Параметр Endianness формата : Big
Идентификатор кодека : A_AC3
Продолжительность : 2 ч. 30 м.
Вид битрейта : Постоянный
Битрейт : 448 Кбит/сек
Каналы : 6 каналов
Расположение каналов : Front: L C R, Side: L R, LFE
Частота : 48,0 КГц
Битовая глубина : 16 бит
Метод сжатия : С потерями
Размер потока : 482 Мбайт (3%)
Язык : Russian
Default : Да
Forced : Да
Аудио #2
Идентификатор : 3
Формат : AC-3
Формат/Информация : Audio Coding 3
Расширение режима : CM (complete main)
Параметр Endianness формата : Big
Идентификатор кодека : A_AC3
Продолжительность : 2 ч. 30 м.
Вид битрейта : Постоянный
Битрейт : 448 Кбит/сек
Каналы : 6 каналов
Расположение каналов : Front: L C R, Side: L R, LFE
Частота : 48,0 КГц
Битовая глубина : 16 бит
Метод сжатия : С потерями
Размер потока : 482 Мбайт (3%)
Язык : Ukrainian
Default : Нет
Forced : Нет
Аудио #3
Идентификатор : 4
Формат : AC-3
Формат/Информация : Audio Coding 3
Расширение режима : CM (complete main)
Параметр Endianness формата : Big
Идентификатор кодека : A_AC3
Продолжительность : 2 ч. 30 м.
Вид битрейта : Постоянный
Битрейт : 448 Кбит/сек
Каналы : 6 каналов
Расположение каналов : Front: L C R, Side: L R, LFE
Частота : 48,0 КГц
Битовая глубина : 16 бит
Метод сжатия : С потерями
Размер потока : 482 Мбайт (3%)
Язык : English
Default : Нет
Forced : Нет
Текст #1
Идентификатор : 5
Формат : UTF-8
Идентификатор кодека : S_TEXT/UTF8
Идентификатор кодека/Информация : UTF-8 Plain Text
Заголовок : Форсированные
Язык : Russian
Default : Да
Forced : Нет
Текст #2
Идентификатор : 6
Формат : UTF-8
Идентификатор кодека : S_TEXT/UTF8
Идентификатор кодека/Информация : UTF-8 Plain Text
Заголовок : Полные
Язык : Russian
Default : Нет
Forced : Нет
Текст #3
Идентификатор : 7
Формат : UTF-8
Идентификатор кодека : S_TEXT/UTF8
Идентификатор кодека/Информация : UTF-8 Plain Text
Заголовок : Полные
Язык : Ukrainian
Default : Нет
Forced : Нет
Текст #4
Идентификатор : 8
Формат : UTF-8
Идентификатор кодека : S_TEXT/UTF8
Идентификатор кодека/Информация : UTF-8 Plain Text
Заголовок : Full
Язык : English
Default : Нет
Forced : Нет
Меню
00:00:00.000 : :1
00:03:55.401 : :2
00:06:51.994 : :3
00:11:47.706 : :4
00:14:29.451 : :5
00:18:37.655 : :6
00:22:15.834 : :7
00:26:51.151 : :8
00:30:31.287 : :9
00:36:41.364 : :10
00:40:48.320 : :11
00:44:49.936 : :12
00:48:47.797 : :13
00:51:16.447 : :14
00:54:22.217 : :15
00:57:32.657 : :16
01:00:31.168 : :17
01:04:41.543 : :18
01:06:49.045 : :19
01:11:01.881 : :20
01:16:53.692 : :21
01:21:18.037 : :22
01:24:30.354 : :23
01:28:08.533 : :24
01:30:54.157 : :25
01:34:14.564 : :26
01:37:20.542 : :27
01:39:20.203 : :28
01:42:40.319 : :29
01:46:50.069 : :30
01:49:02.661 : :31
01:52:18.314 : :32
01:57:29.876 : :33
02:00:23.841 : :34
02:05:41.323 : :35
02:07:31.268 : :36
02:13:38.466 : :37
02:16:21.881 : :38
02:19:39.995 : :39
02:23:19.799 : :40
Благодарности релизеру (16)

Торрент:

Статус:

Размер:

Зарегистрирован   [ 2015-09-27 20:08 ]

* не проверено

18.65 GB