Торренты   
 
 

 

Мир Юрского периода / Jurassic World (Колин Треворроу / Co) [2015, Фантастика, Приключения, Боевик, BDrip, 1080p]Full OverUnder / Вертикальная стереопара

Рейтинг 3D:
7 голосов
7.7
Рейтинг фильма:
7 голосов
6.7
 
Вы должны быть авторизированы,
чтобы ставить оценки


Мир Юрского периода / Jurassic World
Год выпуска: 2015
Страна: США, Китай
Жанр: Фантастика, Приключения, Боевик
Продолжительность: 02:04:23
Перевод: Профессиональный (дублированный)
Русские субтитры: нет
Режиссер: Колин Треворроу / Colin Trevorrow
В ролях: Крис Пратт, Брайс Даллас Ховард, Ник Дж. Робинсон, Тай Симпкинс, Винсент Д’Онофрио, Ирфан Кхан, Омар Си, Б.Д. Вонг, Джейк Джонсон, Джуди Грир.
Описание: Тысячи людей спешат увидеть Мир Юрского периода, но безопасное на первый взгляд развлечение может обернуться угрозой для их жизней…
Сэмпл: http://sendfile.su/1159661
Качество: BDrip
Контейнер: MKV
Формат 3D: OverUnder / Вертикальная стереопара
Порядок ракурсов: левый ракурс первый
Видео кодек: x264
Аудио кодек: DTS
Видео: AVC / High@L5.0 / 23,976 fps / 1920х1920 /25,8 Мбит/сек
Аудио: Русский / DTS / 48 KHz / 5.1 ch / 768 Кбит/сек
Аудио 2: Английский / AC3 / 48 KHz / 5.1 ch / 640 Кбит/сек
Релиз группы: ВНИМАНИЕ ! На встроенных ТВ-плеерах работать не будет!!!
ТВ Samsung в названии которого есть надпись Ultra HD , и LG Ultra HD 800 серии(исключение: LG UB850v не воспроизводит),Xiaomi Mi TV 2 воспроизводят полные стереопары встроенными плеерами
Железные плееры на которых воспроизводятся полные стереопары:Popcorn C-200 , Dune HD Smart D1 , Dune HD DUO , Dune HD Smart H1 , Dune HD Smart B1 , Dune HD Max , Dune HD TV-303D , Dune HD Base 3D, Philips HMP7001, Aura HD

MediaInfo

Общее
Уникальный идентификатор : 180471831090116855238205241921471608024 (0x87C59C40A679679389D2F87319AD74D8)
Полное имя : E:\закачки\Jurassic World.Rip by SeRoGa00.mkv
Формат : Matroska
Версия формата : Version 2
Размер файла : 24,1 Гбайт
Продолжительность : 2 ч. 4 м.
Общий поток : 27,8 Мбит/сек
Дата кодирования : UTC 2015-09-30 07:21:17
Программа кодирования : mkvmerge v3.4.0 ('Rapunzel') сборка от May 15 2010 09:38:20
Библиотека кодирования : libebml v0.8.0 + libmatroska v0.9.0
Видео
Идентификатор : 1
Формат : AVC
Формат/Информация : Advanced Video Codec
Профиль формата : High@L5.0
Параметр CABAC формата : Да
Параметр ReFrames формата : 4 кадра
Идентификатор кодека : V_MPEG4/ISO/AVC
Продолжительность : 2 ч. 4 м.
Битрейт : 25,8 Мбит/сек
Ширина : 1920 пикселей
Высота : 1920 пикселей
Соотношение сторон : 1,000
Частота кадров : 23,976 кадра/сек
Цветовое пространство : YUV
Субдискретизация насыщенности : 4:2:0
Битовая глубина : 8 бит
Тип развёртки : Прогрессивная
Бит/(Пиксели*Кадры) : 0.292
Размер потока : 22,4 Гбайт (93%)
Заголовок : Rip by SeRoGa00
Библиотека кодирования : x264 core 142 r2479 dd79a61
Настройки программы : cabac=1 / ref=4 / deblock=1:-3:-3 / analyse=0x3:0x113 / me=umh / subme=9 / psy=1 / psy_rd=1.00:0.15 / mixed_ref=1 / me_range=24 / chroma_me=1 / trellis=2 / 8x8dct=1 / cqm=0 / deadzone=21,11 / fast_pskip=1 / chroma_qp_offset=-3 / threads=9 / lookahead_threads=1 / sliced_threads=0 / nr=0 / decimate=1 / interlaced=0 / bluray_compat=0 / constrained_intra=0 / bframes=8 / b_pyramid=2 / b_adapt=2 / b_bias=0 / direct=3 / weightb=1 / open_gop=0 / weightp=2 / keyint=250 / keyint_min=23 / scenecut=40 / intra_refresh=0 / rc_lookahead=60 / rc=crf / mbtree=1 / crf=18.0 / qcomp=0.60 / qpmin=10 / qpmax=69 / qpstep=4 / vbv_maxrate=30000 / vbv_bufsize=30000 / crf_max=0.0 / nal_hrd=none / filler=0 / ip_ratio=1.40 / aq=1:1.00
Язык : English
Default : Нет
Forced : Нет
Аудио #1
Идентификатор : 2
Формат : DTS
Формат/Информация : Digital Theater Systems
Идентификатор кодека : A_DTS
Продолжительность : 2 ч. 4 м.
Вид битрейта : Постоянный
Битрейт : 768 Кбит/сек
Каналы : 6 каналов
Расположение каналов : Front: L C R, Side: L R, LFE
Частота : 48,0 КГц
Битовая глубина : 24 бит
Метод сжатия : С потерями
Размер потока : 671 Мбайт (3%)
Язык : Russian
Default : Да
Forced : Нет
Аудио #2
Идентификатор : 3
Формат : AC-3
Формат/Информация : Audio Coding 3
Расширение режима : CM (complete main)
Параметр Endianness формата : Big
Идентификатор кодека : A_AC3
Продолжительность : 2 ч. 4 м.
Вид битрейта : Постоянный
Битрейт : 640 Кбит/сек
Каналы : 6 каналов
Расположение каналов : Front: L C R, Side: L R, LFE
Частота : 48,0 КГц
Битовая глубина : 16 бит
Метод сжатия : С потерями
Размер потока : 569 Мбайт (2%)
Язык : English
Default : Нет
Forced : Нет

Скриншоты


Благодарности релизеру (11)

Торрент:

Статус:

Размер:

Зарегистрирован   [ 2015-09-30 18:20 ]

* не проверено

24.12 GB