Торренты   
 
 


Друг познаётся в беде 3D [2015 г., Anamorph SideBySide]

Рейтинг 3D:
Пока никто не голосовал
Рейтинг фильма:
Пока никто не голосовал
 
Вы должны быть авторизированы,
чтобы ставить оценки


Друг познаётся в беде 3D
Год выпуска: 2015
Страна: Россия
Жанр: анимация, мультфильм, короткометражка
Продолжительность: 00:03:03
Озвучка: Одноголосная (любительская) + субтитры (когда персонажи думают)
Режиссер: Е. Жёлтиков
Описание: 1984 год. История о смелом друге человека
Качество: BDrip
Контейнер: MP4
Формат 3D: Anamorph SideBySide / Анаморфная горизонтальная стереопара
Порядок ракурсов: левый ракурс первый
Видео: BDrip; MPEG-4, AVC, 1280x720, 16:9, 6565 Кбит/сек, 25,000 кадр/сек.
Аудио: Русский, AAC, 2 канала, 48,0 КГц, 320 Кбит/сек
p.s. создано в The Movies, объёмное изображение делал сам.
В большей степени выложил для того, чтобы оценили само 3D, если 3D плохое и подобные раздачи не нужны, то могу удалить, но интересно узнать ваше мнение (не по скриншотам, а по самому видео). Мне кажется, что тут люди лучше всего разбираются в 3D :)

Скриншоты



Media Info

Общее
Формат : MPEG-4
Профиль формата : Base Media / Version 2
Идентификатор кодека : mp42
Размер файла : 151 Мбайт
Продолжительность : 3 м. 3 с.
Режим общего битрейта : Переменный
Общий поток : 6889 Кбит/сек
Дата кодирования : UTC 2015-10-05 17:36:00
Дата пометки : UTC 2015-10-05 17:36:00
Видео
Идентификатор : 2
Формат : AVC
Формат/Информация : Advanced Video Codec
Профиль формата : High@L4
Параметр CABAC формата : Да
Параметр ReFrames формата : 2 кадра
Параметр GOP формата : M=2, N=13
Режим смешивания : Container profile=Baseline@3.1
Идентификатор кодека : avc1
Идентификатор кодека/Информация : Advanced Video Coding
Продолжительность : 3 м. 3 с.
Вид битрейта : Переменный
Битрейт : 6565 Кбит/сек
Максимальный битрейт : 16,0 Мбит/сек
Ширина : 1280 пикселей
Высота : 720 пикселей
Соотношение сторон : 16:9
Режим частоты кадров : Постоянный
Частота кадров : 25,000 кадров/сек
Цветовое пространство : YUV
Субдискретизация насыщенности : 4:2:0
Битовая глубина : 8 бит
Тип развёртки : Прогрессивная
Бит/(Пиксели*Кадры) : 0.285
Размер потока : 144 Мбайт (95%)
Язык : Russian
Дата кодирования : UTC 2015-10-05 17:36:00
Дата пометки : UTC 2015-10-05 17:36:00
Аудио
Идентификатор : 1
Формат : AAC
Формат/Информация : Advanced Audio Codec
Профиль формата : LC
Идентификатор кодека : 40
Продолжительность : 3 м. 3 с.
Вид битрейта : Постоянный
Битрейт : 320 Кбит/сек
Каналы : 2 канала
Расположение каналов : Front: L R
Частота : 48,0 КГц
Метод сжатия : С потерями
Размер потока : 7,01 Мбайт (5%)
Язык : Russian
Дата кодирования : UTC 2015-10-05 17:36:00
Дата пометки : UTC 2015-10-05 17:36:00
Благодарности релизеру (1)

Торрент:

Статус:

Размер:

Зарегистрирован   [ 2015-10-06 11:12 ]

* не проверено

151 MB

 
 Мнение о фильме (4)





Легче всего удалить. А вот стерпеть критику и сделать выводы это большое дело.
 

я имел ввиду, что можно удалить, если не интересны видео, созданные в "The Movies" :)
а чтобы узнать мнения и сделать выводы - для этого и разместил это видео :)
 

С точки зрения обывателя - 3D в некоторых местах нормальное, иногда похоже на конвертацию на 3D ТВ при помощи кнопки. Лучше не удаляй, наверняка кому-то тоже интересны любительские игровые фильмы и мультфильмы.
 

друг познается в тридэ