Торренты   
 
 


Казань 3D UltraHD 2015 [2015 г., Anamorph OverUnder]

Рейтинг 3D:
Пока никто не голосовал
Рейтинг фильма:
Пока никто не голосовал
 
Вы должны быть авторизированы,
чтобы ставить оценки


Казань 3D UltraHD 2015
Год выпуска: 2015
Страна: Россия
Жанр: Анимированный ролик
Продолжительность: 04 мин. 30 сек.
Описание:
Анимированный ролик в формате 4K (UltraHD).
Виды Казани столицы Татарстана, Музей исламской культуры.
первая раздача в UltraHD формате на ресурсе torrents3d.ru
Формат 3D: Anamorph OverUnder
Видео: AVC, Profile: High@L5.1, 3840х2160, 30 к/с, 45 Mbps.

Скриншоты





Media Info

General
Complete name : Kazan.Torrents3D.ru.UltraHD.halfOU.2160-30р..mp4
Format : MPEG-4
Format profile : Base Media / Version 2
Codec ID : mp42
File size : 1.43 GiB
Duration : 4mn 30s
Overall bit rate mode : Variable
Overall bit rate : 45.3 Mbps
Encoded date : UTC 2015-10-11 08:13:01
Tagged date : UTC 2015-10-11 08:13:01
Video #2
ID : 2
Format : AVC
Format/Info : Advanced Video Codec
Format profile : High@L5.1
Format settings, CABAC : Yes
Format settings, ReFrames : 3 frames
Format settings, GOP : M=4, N=15
Codec ID : avc1
Codec ID/Info : Advanced Video Coding
Duration : 4mn 30s
Bit rate mode : Variable
Bit rate : 44.9 Mbps
Maximum bit rate : 50.0 Mbps
Width : 3 840 pixels
Height : 2 160 pixels
Display aspect ratio : 16:9
Frame rate mode : Constant
Frame rate : 29.970 fps
Standard : NTSC
Color space : YUV
Chroma subsampling : 4:2:0
Bit depth : 8 bits
Scan type : Progressive
Bits/(Pixel*Frame) : 0.181
Stream size : 1.41 GiB (99%)
Language : English
Encoded date : UTC 2015-10-11 08:13:01
Tagged date : UTC 2015-10-11 08:13:01
Color primaries : BT.709
Transfer characteristics : BT.709
Matrix coefficients : BT.709
Audio #1
ID : 1
Format : AAC
Format/Info : Advanced Audio Codec
Format profile : LC
Codec ID : 40
Duration : 4mn 29s
Bit rate mode : Constant
Bit rate : 448 Kbps
Channel count : channel0
Original Channel count : 2 channels
Channel positions : Front: L R
Sampling rate : 48.0 KHz
Compression mode : Lossy
Stream size : 14.4 MiB (1%)
Language : English
Encoded date : UTC 2015-10-11 08:13:01
Tagged date : UTC 2015-10-11 08:13:01
Благодарности релизеру (5)

Торрент:

Статус:

Размер:

Зарегистрирован   [ 2015-10-11 23:12 ]

проверено

1.43 GB