Торренты   
 
 

 

Миньоны / Minions (Кайл Балда / Kyle Balda, Пьер Коффан / Pierre Coffin) [2015 г., Anamorph OverUnder]

Рейтинг 3D:
19 голосов
8.1
Рейтинг фильма:
19 голосов
7.2
 
Вы должны быть авторизированы,
чтобы ставить оценки


Миньоны / Minions
Год выпуска: 2015
Страна: США
Жанр: мультфильм, комедия, семейный
Продолжительность: 01:30:57
Перевод: Профессиональный (полное дублирование)
Режиссер: Кайл Балда / Kyle Balda, Пьер Коффан / Pierre Coffin
В ролях: Сандра Буллок, Джон Хэмм, Майкл Китон, Эллисон Дженни, Стив Куган, Дженнифер Сондерс, Джеффри Раш, Стив Карелл, Пьер Коффан, Кэти Миксон.
Описание: Миньоны живут на планете гораздо дольше нас. У них одна навязчивая идея - служить самой Гадкой личности из имеющихся в наличии. Динозавры, фараоны, Дракула, Наполеон - все они оказались недолговечны. И тогда миньоны рванули в Нью-Йорк. Их ждут деньги, власть, роковая суперзлодейка Скарлет Оверкилл и, конечно же, вкуснейшая «банана»! Во всяком случае, так им кажется.
Формат 3D: Anamorph OverUnder
Качество: BDRip
Формат: MKV
Формат 3D: Anamorph OverUnder
Видео: h.264 1920x1080 6.7 Mbps
Аудио:
1. Русский - AC3 / Ch 5.1 / 384 Kbps
2. Английский - AC3 / Ch 5.1 / 640 Kbps
Субтитры:
1. Английские - Полные

25.10 Релиз обновлен: выложен файл с более высокими настройками кодирования

Скриншоты

Media Info

Video
ID : 1
Format : AVC
Format/Info : Advanced Video Codec
Format profile : High@L4.1
Format settings, CABAC : Yes
Format settings, ReFrames : 4 frames
Codec ID : V_MPEG4/ISO/AVC
Duration : 1h 30mn
Bit rate : 6 754 Kbps
Width : 1 920 pixels
Height : 1 080 pixels
Display aspect ratio : 16:9
Frame rate mode : Constant
Frame rate : 23.976 fps
Color space : YUV
Chroma subsampling : 4:2:0
Bit depth : 8 bits
Scan type : Progressive
Bits/(Pixel*Frame) : 0.136
Stream size : 4.29 GiB (85%)
Writing library : x264 core 142
Encoding settings : cabac=1 / ref=4 / deblock=1:-3:-3 / analyse=0x3:0x133 / me=umh / subme=9 / psy=1 / psy_rd=1.00:0.20 / mixed_ref=1 / me_range=16 / chroma_me=1 / trellis=2 / 8x8dct=1 / cqm=0 / deadzone=21,11 / fast_pskip=1 / chroma_qp_offset=-3 / threads=4 / lookahead_threads=1 / sliced_threads=0 / nr=0 / decimate=1 / interlaced=0 / bluray_compat=0 / constrained_intra=0 / bframes=6 / b_pyramid=0 / b_adapt=1 / b_bias=0 / direct=1 / weightb=1 / open_gop=0 / weightp=2 / keyint=24 / keyint_min=13 / scenecut=40 / intra_refresh=0 / rc=crf / mbtree=0 / crf=23.0 / qcomp=0.60 / qpmin=0 / qpmax=69 / qpstep=4 / ip_ratio=1.40 / pb_ratio=1.30 / aq=1:1.00
Default : Yes
Forced : No
Color primaries : BT.709
Transfer characteristics : BT.709
Matrix coefficients : BT.709
Audio #1
ID : 2
Format : AC-3
Format/Info : Audio Coding 3
Mode extension : CM (complete main)
Format settings, Endianness : Big
Codec ID : A_AC3
Duration : 1h 30mn
Bit rate mode : Constant
Bit rate : 384 Kbps
Channel(s) : 6 channels
Channel positions : Front: L C R, Side: L R, LFE
Sampling rate : 48.0 KHz
Bit depth : 16 bits
Compression mode : Lossy
Stream size : 250 MiB (5%)
Language : Russian
Default : Yes
Forced : No
Audio #2
ID : 3
Format : AC-3
Format/Info : Audio Coding 3
Mode extension : CM (complete main)
Format settings, Endianness : Big
Codec ID : A_AC3
Duration : 1h 30mn
Bit rate mode : Constant
Bit rate : 640 Kbps
Channel(s) : 6 channels
Channel positions : Front: L C R, Side: L R, LFE
Sampling rate : 48.0 KHz
Bit depth : 16 bits
Compression mode : Lossy
Stream size : 416 MiB (8%)
Language : English
Default : No
Forced : No
Text
ID : 4
Format : PGS
Codec ID : S_HDMV/PGS
Codec ID/Info : The same subtitle format used on BDs/HD-DVDs
Language : English
Default : No
Forced : No

Нажми кнопочку под этой надписью, скажи "Спасибо"! Релизеру будет приятно!
Благодарности релизеру (220)

Торрент:

Статус:

Размер:

Зарегистрирован   [ 2015-10-25 04:39 ]

* не проверено

5.04 GB