Торренты   
 
 


С любовью из 80-х в 3D [2015 г., Anamorph SideBySide]

Рейтинг 3D:
1 голосов
5.0
Рейтинг фильма:
1 голосов
5.0
 
Вы должны быть авторизированы,
чтобы ставить оценки


С любовью из 80-х в 3D
Год выпуска: 2015
Страна: Россия
Жанр: анимация, любительский мультфильм, драма
Продолжительность: 00:15:37
Озвучка: Одноголосная (любительская) + субтитры (когда персонажи думают)
Описание: Описание: Действие происходит в 1988 году. История о 3-х молодых людях. Стив долгое время был влюблён в Джоанну, но когда решил признаться ей в своих чувствах, она ему отказала, но он не отступает... это может сильно не понравится Грэгу, парню Джоанны...
Формат 3D: Anamorph SideBySide / Анаморфная горизонтальная стереопара
Порядок ракурсов: левый ракурс первый
Видео: HDTVip; MPEG-4, AVC, 1280x720, 16:9, 1474 Кбит/сек, 25,000 кадр/сек.
Аудио: Русский, AAC, 2 канала, 48,0 КГц, 320 Кбит/сек

Скриншоты



Media Info

General
Format : MPEG-4
Format profile : Base Media / Version 2
Codec ID : mp42
File size : 186 MiB
Duration : 15mn 36s
Overall bit rate mode : Variable
Overall bit rate : 1 669 Kbps
Encoded date : UTC 2015-11-07 22:19:47
Tagged date : UTC 2015-11-07 22:19:47
gsst : 0
gstd : 936738
gssd : B4A7DDA01
gshh : r1---sn-4g57kuee.googlevideo.com
Video
ID : 1
Format : AVC
Format/Info : Advanced Video Codec
Format profile : High@L3.1
Format settings, CABAC : Yes
Format settings, ReFrames : 1 frame
Codec ID : avc1
Codec ID/Info : Advanced Video Coding
Duration : 15mn 36s
Bit rate : 1 474 Kbps
Maximum bit rate : 4 921 Kbps
Width : 1 280 pixels
Height : 720 pixels
Display aspect ratio : 16:9
Frame rate mode : Constant
Frame rate : 25.000 fps
Color space : YUV
Chroma subsampling : 4:2:0
Bit depth : 8 bits
Scan type : Progressive
Bits/(Pixel*Frame) : 0.064
Stream size : 165 MiB (88%)
Tagged date : UTC 2015-11-07 22:19:54
Audio
ID : 2
Format : AAC
Format/Info : Advanced Audio Codec
Format profile : LC
Codec ID : 40
Duration : 15mn 36s
Bit rate mode : Variable
Bit rate : 192 Kbps
Maximum bit rate : 202 Kbps
Channel(s) : 2 channels
Channel positions : Front: L R
Sampling rate : 44.1 KHz
Compression mode : Lossy
Stream size : 21.4 MiB (12%)
Title : IsoMedia File Produced by Google, 5-11-2011
Language : Russian
Encoded date : UTC 2015-11-07 22:19:52
Tagged date : UTC 2015-11-07 22:19:54
Благодарности релизеру (2)

Торрент:

Статус:

Размер:

Зарегистрирован   [ 2015-11-11 10:09 ]

* не проверено

186 MB