Торренты   
 
 

 

Хоббит: Битва пяти воинств (режиссерская версия) / The Hobbit: The Battle of the Five Armies (Питер Джексон / Peter Jackson) [2014 г., Anamorph OverUnder]

Рейтинг 3D:
7 голосов
7.7
Рейтинг фильма:
5 голосов
7.0
 
Вы должны быть авторизированы,
чтобы ставить оценки


Хоббит: Битва пяти воинств (режиссерская версия) / The Hobbit: The Battle of the Five Armies
Год выпуска: 2014
Страна: Новая Зеландия, США
Жанр: Фэнтези, Приключения
Продолжительность: 2:44:02
Перевод: Профессиональный (полное дублирование)
Режиссер: Питер Джексон / Peter Jackson
В ролях: Bilbo - Мартин Фриман (Илья Хвостиков), Gandalf - Иэн МакКеллен (Василий Бочкарев), Thorin - Ричард Армитедж (Игорь Балалаев), Bard - Люк Эванс (Дмитрий Поляновский), Tauriel - Эванджелин Лилли (Марьяна Спивак), Thranduil - Ли Пейс (Антон Савенков), Legolas - Орландо Блум (Олег Вирозуб), Smaug / Necromancer - Бенедикт Камбербэтч (Олег Куценко), Balin - Кен Стотт (Борис Быстров), Kili - Эйдан Тернер (Александр Дзюба), Galadriel - Кейт Бланшетт (Ольга Зубкова), Elrond - Хьюго Уивинг (Валерий Сторожик), Dwalin - Грэм МакТавиш (Борис Токарев), Bifur - Уильям Кирчер (Владислав Копп), Bombur - Стивен Хантер (Михаил Белякович), Fili - Дин О’Горман (Иван Жарков), Bofur - Джеймс Несбитт, Oin - Джон Коллен (Игорь Старосельцев), Gloin - Питер Хэмблтон (Александр Груздев), Nori - Джед Брофи (Григорий Шевчук), Saruman - Кристофер Ли (Владимир Левашёв), Old Bilbo - Иэн Холм (Александр Воеводин), Dori - Марк Хэдлоу (Михаил Бескаравайный), Ori - Адам Браун (Диомид Виноградов), Beorn - Микаэл Персбрандт (Андрей Ташков), Radagast - Сильвестр МакКой (Сергей Чихачев), Master of Laketown - Стивен Фрай (Алексей Колган), Alfrid - Райан Гейдж (Даниил Эльдаров), Azog - Ману Беннетт
Описание: Когда отряд из тринадцати гномов нанимал хоббита Бильбо Бэгинса в качестве взломщика и четырнадцатого, «счастливого», участника похода к Одинокой горе, Бильбо полагал, что его приключения закончатся, когда он выполнит свою задачу — найдет сокровище, которое так необходимо предводителю гномов Торину. Путешествие в Эребор, захваченное драконом Смаугом королевство гномов, оказалось еще более опасным, чем предполагали гномы и даже Гэндальф — мудрый волшебник, протянувший Торину и его отряду руку помощи.
В погоню за гномами устремилась армия орков, ведомых пробудившимся в руинах древним злом, а эльфы и люди, с которыми Бильбо и его товарищам пришлось иметь дело во время путешествия и которые пострадали от последствий желания гномов вернуть свой дом, предъявили права на щедрое вознаграждение — часть сокровищ Одинокой горы. Скоро неподалеку от Одинокой горы встретятся пять армий, и лишь кровопролитная битва определит результаты смелого гномьего похода
.

Качество: BDRip
Формат 3D: Anamorph OverUnder
Видео: h.264 1920x1080 ~12.1 Mbps
Аудио:
1. Русский - AC3 / 5.1 Ch / 640 kbps
2. Английский - AC3 / 5.1 Ch / 640 kbps
Субтитры:
1. Русские - форсированные (на языки орков и эльфов), вшиты в видеопоток
2. Английские - полные (UTF-8)

Скриншоты

Media Info

Complete name : G:\Temp\Битва2\Битва пяти воинств.mkv
Format : Matroska
Format version : Version 4 / Version 2
File size : 15.6 GiB
Duration : 2h 43mn
Overall bit rate mode : Variable
Overall bit rate : 13.6 Mbps
Movie name : HOBBIT_TBOFA_3D_NCB_BLUEBIRD.Title3
Encoded date : UTC 2015-11-28 09:51:17
Writing application : mkvmerge v8.3.0 ('Over the Horizon') 64bit
Writing library : XviD4PSP 6.0 / 54.29.105
DURATION : 02:42:54.930000000
NUMBER_OF_FRAMES : 1713
NUMBER_OF_BYTES : 39220
_STATISTICS_WRITING_APP : mkvmerge v8.3.0 ('Over the Horizon') 64bit
_STATISTICS_WRITING_DATE_UTC : 2015-11-28 13:13:35
_STATISTICS_TAGS : BPS DURATION NUMBER_OF_FRAMES NUMBER_OF_BYTES
Video
ID : 1
Format : AVC
Format/Info : Advanced Video Codec
Format profile : High@L4.0
Format settings, CABAC : Yes
Format settings, ReFrames : 2 frames
Format settings, GOP : M=3, N=24
Codec ID : V_MPEG4/ISO/AVC
Duration : 2h 44mn
Bit rate mode : Variable
Bit rate : 12.1 Mbps
Maximum bit rate : 6 215 Kbps
Width : 1 920 pixels
Height : 1 080 pixels
Display aspect ratio : 16:9
Frame rate mode : Constant
Frame rate : 23.976 fps
Color space : YUV
Chroma subsampling : 4:2:0
Bit depth : 8 bits
Scan type : Progressive
Bits/(Pixel*Frame) : 0.243
Stream size : 13.9 GiB (89%)
Default : Yes
Forced : No
Color primaries : BT.709
Transfer characteristics : BT.709
Matrix coefficients : BT.709
Audio #1
ID : 2
Format : AC-3
Format/Info : Audio Coding 3
Mode extension : CM (complete main)
Format settings, Endianness : Big
Codec ID : A_AC3
Duration : 2h 43mn
Bit rate mode : Constant
Bit rate : 640 Kbps
Channel(s) : 6 channels
Channel positions : Front: L C R, Side: L R, LFE
Sampling rate : 48.0 KHz
Bit depth : 16 bits
Compression mode : Lossy
Stream size : 751 MiB (5%)
Language : Russian
Default : Yes
Forced : No
Audio #2
ID : 3
Format : AC-3
Format/Info : Audio Coding 3
Mode extension : CM (complete main)
Format settings, Endianness : Big
Codec ID : A_AC3
Duration : 2h 43mn
Bit rate mode : Constant
Bit rate : 640 Kbps
Channel(s) : 6 channels
Channel positions : Front: L C R, Side: L R, LFE
Sampling rate : 48.0 KHz
Bit depth : 16 bits
Compression mode : Lossy
Stream size : 751 MiB (5%)
Language : English
Default : No
Forced : No
Text
ID : 4
Format : UTF-8
Codec ID : S_TEXT/UTF8
Codec ID/Info : UTF-8 Plain Text
Title : SDH
Language : English
Default : No
Forced : No
Благодарности релизеру (10)

Торрент:

Статус:

Размер:

Зарегистрирован   [ 2015-11-28 17:20 ]

* не проверено

15.63 GB

 
 Мнение о фильме (9)





надеюсь, не с ютуба вставки)
 

VadimbI4, остряк блин..
 

Amstaff, просто вроде ж в декабре обещали только...
 

VadimbI4, качество гарантировано!
 

русская дорожка с раздутым битрейтом + отсутствие в МИ настроек кодирования + Формат profile : High@L4.0, Формат настройки, ReFrames : 2 frames.
 

rufuss-87, битрейт в русской аудиодороге не раздут - была сделана дорога DTS-MA путем наложения русской речи на оригинальную дорогу. Я просто ее конвертировал в AC3.
 

вцелом неплохо, но иногда моментами картинка не смотрибельна... похоже на эффект, как будто ракурсы поменяны... пробовал менять местами, стало еще хуже. Особенно видно на начальных титрах.... и еще в 3-4х сценах чуть глаза с женой не сломали)
иконбит 1003д +лж 55lb650v
 

Звук не очень, русскую речь плохо слышно....((((((((
 

6422124, настраивайте акустику