Торренты   
 
 

 

Маленький принц / The Little Prince (Марк Осборн) [2015 г., Anamorph OverUnder]

Рейтинг 3D:
6 голосов
8.0
Рейтинг фильма:
6 голосов
7.5
 
Вы должны быть авторизированы,
чтобы ставить оценки


Маленький принц / The Little Prince
Год выпуска: 2015
Страна: Франция
Жанр: Мультфильм, фэнтези, приключения
Продолжительность: 01:46:34
Перевод: Любительский (двухголосый)
Режиссер: Марк Осборн
В ролях: Рэйчел МакАдамс, Пол Радд, Джеймс Франко, Марион Котийяр, Бенисио Дель Торо, Маккензи Фой, Джефф Бриджес, Венсан Кассель, Пол Джаматти, Рики Джервэйс
Описание: Мир невозможен без фантазии и приключений. По крайней мере в это верит добродушный старик авиатор, по соседству с которым недавно поселилась одна очень педантичная мама со своей прилежной дочкой. Жизнь девочки подчинена строгому учебному плану, в котором время на друзей предусмотрено только следующим летом. Однако этот тщательно выстроенный план трещит по швам, когда в жизнь девочки врывается странный сосед с его невероятными рассказами о Маленьком Принце и далеких звездах. Осталось только починить самолет, и в путь! Так начинается большое путешествие девочки — полное опасностей, волшебства, юмора и настоящей дружбы.
Качество: BDRip
Формат 3D: Anamorph OverUnder
Видео: h.264 1920x1080 ~9.3 Mbps
Аудио:
1. Русский - AC3 / 5.1 Ch / 640 Kbps

Скриншоты

Media Info

Complete name : G:\Temp\3D - Маленький принц.mkv
Format : Matroska
Format version : Version 2
File size : 7.55 GiB
Duration : 1h 46mn
Overall bit rate : 10.1 Mbps
Movie name : THE_LITTLE_PRINCE.Title0
Encoded date : UTC 2015-12-02 12:16:54
Writing application : DVDFab 9.2.1.2
Writing library : libebml v0.7.8 + libmatroska v0.8.1
Video
ID : 1
Format : AVC
Format/Info : Advanced Video Codec
Format profile : High@L4.1
Format settings, CABAC : Yes
Format settings, ReFrames : 4 frames
Codec ID : V_MPEG4/ISO/AVC
Duration : 1h 46mn
Bit rate : 9 294 Kbps
Width : 1 920 pixels
Height : 1 080 pixels
Display aspect ratio : 16:9
Frame rate mode : Constant
Frame rate : 23.976 fps
Color space : YUV
Chroma subsampling : 4:2:0
Bit depth : 8 bits
Scan type : Progressive
Bits/(Pixel*Frame) : 0.187
Stream size : 6.92 GiB (92%)
Writing library : x264 core 142
Encoding settings : cabac=1 / ref=4 / deblock=1:-3:-3 / analyse=0x3:0x133 / me=umh / subme=9 / psy=1 / psy_rd=1.00:0.20 / mixed_ref=1 / me_range=16 / chroma_me=1 / trellis=2 / 8x8dct=1 / cqm=0 / deadzone=21,11 / fast_pskip=1 / chroma_qp_offset=-3 / threads=4 / lookahead_threads=1 / sliced_threads=0 / nr=0 / decimate=1 / interlaced=0 / bluray_compat=0 / constrained_intra=0 / bframes=6 / b_pyramid=0 / b_adapt=2 / b_bias=0 / direct=1 / weightb=1 / open_gop=0 / weightp=2 / keyint=24 / keyint_min=13 / scenecut=40 / intra_refresh=0 / rc=crf / mbtree=0 / crf=17.0 / qcomp=0.60 / qpmin=0 / qpmax=69 / qpstep=4 / ip_ratio=1.40 / pb_ratio=1.30 / aq=1:1.00
Default : Yes
Forced : No
Color primaries : BT.709
Transfer characteristics : BT.709
Matrix coefficients : BT.709
Audio
ID : 2
Format : AC-3
Format/Info : Audio Coding 3
Mode extension : CM (complete main)
Format settings, Endianness : Big
Codec ID : A_AC3
Duration : 1h 46mn
Bit rate mode : Constant
Bit rate : 640 Kbps
Channel(s) : 6 channels
Channel positions : Front: L C R, Side: L R, LFE
Sampling rate : 48.0 KHz
Bit depth : 16 bits
Compression mode : Lossy
Stream size : 488 MiB (6%)
Language : Russian
Default : Yes
Forced : No
Благодарности релизеру (24)

Торрент:

Статус:

Размер:

Зарегистрирован   [ 2015-12-03 04:44 ]

* не проверено

7.55 GB