Торренты   
 
 


Любовь / Love (Гаспар Ноэ / Gaspar) [2015, Арт-хаус, Драма, Эротика, BDrip, 1080p]Full OverUnder / Вертикальная стереопара

Рейтинг 3D:
6 голосов
6.0
Рейтинг фильма:
7 голосов
6.6
 
Вы должны быть авторизированы,
чтобы ставить оценки


Любовь / Love
Год выпуска: 2015
Страна: Франция, Бельгия (Les Cinémas de la Zone, Rectangle Productions, Wild Bunch, RT Features)
Жанр: Арт-хаус, Драма, Эротика
Продолжительность: 02:15:15
Перевод: Профессиональный многоголосый закадровый(MVO - IPTV)
Русские субтитры: нет
Режиссер: Гаспар Ноэ / Gaspar Noé
В ролях: Аоми Муйок, Карл Глусман, Клара Кристин, Хуан Сааведра, Гаспар Ноэ, Венсан Мараваль, Бенуа Дебиф, Стелла Роча
Описание: Любовь вне добра и зла. Любовь — это генетическая потребность. Это дар и проклятие. Любовь — это болезнь, наркотик. Это потеря и обретение себя. Любовь — это самое прекрасное и самое ужасное в нашей жизни. Любовь — это переплетение душ и соединение тел. «Любовь» — это возбуждающая сексуальная мелодрама о парне, девушке и еще одной девушке.
Внимание!: Возрастное ограничение 18 лет!!!
Дополнительная информация по релизу: Ожидалось, что компания Premium Film выпустит «Любовь» в российский прокат 3 сентября. Представитель компании заявила, что для проката будут использованы «софт-материалы» (кадры, в которых прямо демонстрируются половые органы и половой акт, будут вырезаны или заретушированы). Кроме того, фильм должен был быть выпущен с возрастным ограничением 18+ и появиться только на ночных киносеансах. Однако, 17 сентября 2015г Министерство культуры России запретило прокат фильма из-за «многочисленных сцен порнографического характера».
Сэмпл: http://sendfile.su/1181675
Качество: BDrip
Контейнер: MKV
Формат 3D: OverUnder / Вертикальная стереопара
Порядок ракурсов: левый ракурс первый
Видео кодек: x264
Аудио кодек: AC3
Видео: AVC / High@L5.0 / 23,976 fps / 1920х1600 /23,4 Мбит/сек
Аудио: Русский / AC3 / 48 KHz / 5.1 ch / 448 Кбит/сек(MVO - IPTV)
Аудио 2: Английский / AC3 / 48 KHz / 5.1 ch / 640 Кбит/сек
Релиз группы: ВНИМАНИЕ ! На встроенных ТВ-плеерах работать не будет!!!
ТВ Samsung в названии которого есть надпись Ultra HD , и LG Ultra HD 800 серии(исключение: LG UB850v не воспроизводит),Xiaomi Mi TV 2 воспроизводят полные стереопары встроенными плеерами
Железные плееры на которых воспроизводятся полные стереопары:Popcorn C-200 , Dune HD Smart D1 , Dune HD DUO , Dune HD Smart H1 , Dune HD Smart B1 , Dune HD Max , Dune HD TV-303D , Dune HD Base 3D, Philips HMP7001

MediaInfo

Общее
Уникальный идентификатор : 181059704693161369413943026315082481901 (0x8836D4A8B1578571AF60439B264A40ED)
Полное имя : F:\видео\Lubov.Rip by SeRoGa00.mkv
Формат : Matroska
Версия формата : Version 2
Размер файла : 23,6 Гбайт
Продолжительность : 2 ч. 15 м.
Общий поток : 25,0 Мбит/сек
Дата кодирования : UTC 2015-12-09 10:43:20
Программа кодирования : mkvmerge v3.4.0 ('Rapunzel') сборка от May 15 2010 09:38:20
Библиотека кодирования : libebml v0.8.0 + libmatroska v0.9.0
Видео
Идентификатор : 1
Формат : AVC
Формат/Информация : Advanced Video Codec
Профиль формата : High@L5.0
Параметр CABAC формата : Да
Параметр ReFrames формата : 4 кадра
Идентификатор кодека : V_MPEG4/ISO/AVC
Продолжительность : 2 ч. 15 м.
Битрейт : 23,4 Мбит/сек
Ширина : 1920 пикселей
Высота : 1600 пикселей
Соотношение сторон : 1,200
Частота кадров : 23,976 кадра/сек
Цветовое пространство : YUV
Субдискретизация насыщенности : 4:2:0
Битовая глубина : 8 бит
Тип развёртки : Прогрессивная
Бит/(Пиксели*Кадры) : 0.318
Размер потока : 22,1 Гбайт (94%)
Заголовок : Rip by SeRoGa00
Библиотека кодирования : x264 core 148 r2638 7599210
Настройки программы : cabac=1 / ref=4 / deblock=1:-2:-2 / analyse=0x3:0x113 / me=umh / subme=9 / psy=1 / psy_rd=1.00:0.15 / mixed_ref=1 / me_range=32 / chroma_me=1 / trellis=2 / 8x8dct=1 / cqm=0 / deadzone=21,11 / fast_pskip=1 / chroma_qp_offset=-3 / threads=9 / lookahead_threads=2 / sliced_threads=0 / nr=0 / decimate=1 / interlaced=0 / bluray_compat=0 / constrained_intra=0 / bframes=10 / b_pyramid=2 / b_adapt=2 / b_bias=0 / direct=3 / weightb=1 / open_gop=0 / weightp=2 / keyint=250 / keyint_min=23 / scenecut=40 / intra_refresh=0 / rc_lookahead=60 / rc=crf / mbtree=1 / crf=18.0 / qcomp=0.80 / qpmin=10 / qpmax=69 / qpstep=4 / vbv_maxrate=30000 / vbv_bufsize=30000 / crf_max=0.0 / nal_hrd=none / filler=0 / ip_ratio=1.40 / aq=1:1.00
Язык : English
Default : Нет
Forced : Нет
Аудио #1
Идентификатор : 2
Формат : AC-3
Формат/Информация : Audio Coding 3
Расширение режима : CM (complete main)
Параметр Endianness формата : Big
Идентификатор кодека : A_AC3
Продолжительность : 2 ч. 15 м.
Вид битрейта : Постоянный
Битрейт : 448 Кбит/сек
Каналы : 6 каналов
Расположение каналов : Front: L C R, Side: L R, LFE
Частота : 48,0 КГц
Битовая глубина : 16 бит
Метод сжатия : С потерями
Размер потока : 434 Мбайт (2%)
Язык : Russian
Default : Да
Forced : Нет
Аудио #2
Идентификатор : 3
Формат : AC-3
Формат/Информация : Audio Coding 3
Расширение режима : CM (complete main)
Параметр Endianness формата : Big
Идентификатор кодека : A_AC3
Продолжительность : 2 ч. 15 м.
Вид битрейта : Постоянный
Битрейт : 640 Кбит/сек
Каналы : 6 каналов
Расположение каналов : Front: L C R, Side: L R, LFE
Частота : 48,0 КГц
Битовая глубина : 16 бит
Метод сжатия : С потерями
Размер потока : 620 Мбайт (3%)
Язык : English
Default : Нет
Forced : Нет

Скриншоты


Благодарности релизеру (5)

Торрент:

Статус:

Размер:

Зарегистрирован   [ 2015-12-09 16:18 ]

* не проверено

23.64 GB