Торренты   
 
 

 

Обитель зла: Проклятие / Biohazard: Damnation (Макото Камия) [2012 г., Anamorph SideBySide]

Рейтинг 3D:
6 голосов
8.7
Рейтинг фильма:
6 голосов
7.7
 
Вы должны быть авторизированы,
чтобы ставить оценки


Обитель зла: Проклятие / Resident Evil: Damnation
Год выпуска: 2012
Страна: Япония
Жанр: научная фантастика, ужасы
Продолжительность: 01:40:02
Перевод: Профессиональный (многоголосый, закадровый)
Режиссер: Макото Камия
Описание: Продолжение популярной компьютерной анимации «Обитель зла: Вырождение». Леон Кеннеди отправляется в Восточную Европу на борьбу с монстрами — порождениями корпорации Амбрела. Больше монстров, больше пушек, больше экшена.
Формат 3D: Anamorph SideBySide
Качество: BDrip
Контейнер: MKV
Видео: AVC / 1920х1080p / 23,976215 fps / 15051 Kbps
Кодек: Н264-MPEG-4AVC
Аудио: Русский, Английский / AC3 / 48 KHz / 5.1 ch / 640 Kbps
Субтитры: Rus, Ukr, EngПроверен на встроенном тв плейере DNS S32DC1

MediaInfo

General
Unique ID : 242949051548015292950724796070916916423 (0xB6C6490BA0C862F18AFDF5BAA03204C7)
Complete name : E:\resident.evil.damnation.2012.1080p.BDRip.3D.mkv
Format : Matroska
Format version : Version 4 / Version 2
File size : 10.5 GiB
Duration : 1h 40mn
Overall bit rate : 15.1 Mbps
Movie name : ~V~
Encoded date : UTC 2013-02-05 07:16:11
Writing application : mkvmerge v6.0.0 ('Coming Up For Air') built on Jan 20 2013 09:52:00
Writing library : libebml v1.3.0 + libmatroska v1.4.0
Video
ID : 1
Format : AVC
Format/Info : Advanced Video Codec
Format profile : High@L4.1
Format settings, CABAC : Yes
Format settings, ReFrames : 2 frames
Codec ID : V_MPEG4/ISO/AVC
Duration : 1h 40mn
Bit rate : 13.5 Mbps
Width : 1 920 pixels
Height : 1 080 pixels
Display aspect ratio : 16:9
Frame rate mode : Constant
Frame rate : 23.976 fps
Color space : YUV
Chroma subsampling : 4:2:0
Bit depth : 8 bits
Scan type : Progressive
Bits/(Pixel*Frame) : 0.271
Stream size : 9.41 GiB (90%)
Writing library : x264 core
Language : English
Default : Yes
Forced : No
Color primaries : BT.709
Transfer characteristics : BT.709
Matrix coefficients : BT.709
Audio #1
ID : 2
Format : AC-3
Format/Info : Audio Coding 3
Mode extension : CM (complete main)
Format settings, Endianness : Big
Codec ID : A_AC3
Duration : 1h 40mn
Bit rate mode : Constant
Bit rate : 640 Kbps
Channel(s) : 6 channels
Channel positions : Front: L C R, Side: L R, LFE
Sampling rate : 48.0 KHz
Bit depth : 16 bits
Compression mode : Lossy
Delay relative to video : 300ms
Stream size : 458 MiB (4%)
Title : закадровый
Language : Russian
Default : Yes
Forced : Yes
Audio #2
ID : 3
Format : AC-3
Format/Info : Audio Coding 3
Mode extension : CM (complete main)
Format settings, Endianness : Big
Codec ID : A_AC3
Duration : 1h 40mn
Bit rate mode : Constant
Bit rate : 640 Kbps
Channel(s) : 6 channels
Channel positions : Front: L C R, Side: L R, LFE
Sampling rate : 48.0 KHz
Bit depth : 16 bits
Compression mode : Lossy
Delay relative to video : 300ms
Stream size : 458 MiB (4%)
Title : оригинал
Language : English
Default : No
Forced : No
Text #1
ID : 4
Format : UTF-8
Codec ID : S_TEXT/UTF8
Codec ID/Info : UTF-8 Plain Text
Language : Russian
Default : No
Forced : No
Text #2
ID : 5
Format : UTF-8
Codec ID : S_TEXT/UTF8
Codec ID/Info : UTF-8 Plain Text
Language : Ukrainian
Default : No
Forced : No
Text #3
ID : 6
Format : UTF-8
Codec ID : S_TEXT/UTF8
Codec ID/Info : UTF-8 Plain Text
Language : English
Default : No
Forced : No
Menu
00:00:00.000 : en:00:00:00.000
00:05:32.999 : en:00:05:32.999
00:12:53.481 : en:00:12:53.481
00:18:27.898 : en:00:18:27.898
00:23:51.972 : en:00:23:51.972
00:30:03.885 : en:00:30:03.885
00:36:00.992 : en:00:36:00.992
00:41:54.303 : en:00:41:54.303
00:49:30.009 : en:00:49:30.009
00:53:57.860 : en:00:53:57.860
00:58:38.807 : en:00:58:38.807
01:04:52.597 : en:01:04:52.597
01:13:41.083 : en:01:13:41.083
01:17:42.283 : en:01:17:42.283
01:23:17.201 : en:01:23:17.201
01:28:18.376 : en:01:28:18.376

Скриншоты




Благодарности релизеру (6)

Торрент:

Статус:

Размер:

Зарегистрирован   [ 2015-12-13 19:42 ]

* не проверено

10.52 GB

 
 Мнение о фильме (7)





pitoky
1. Где МедиаИнфо?
2. Где постер и скриншоты?
3. Скриншоты должны быть в формате png и в оригинальном разрешении (в виде кликабельных превью).
Дальнейшие требования могут последовать после опубликования МедиаИнфо...
Не будет исправлено - будет закрыто! Если исправите и параметры будут не подходящими для трекера, раздача также будет закрыта.
 

Вроде поправил, только не знаю где взять более подробную информацию для медиаинфо. Под строкой "Формат 3D" указал всё, что нашел в свойствах файла.
 

pitoky, дооформил на первый раз.
 

Спасибо. А откуда вообще вся эта информация берется? там так много всего
 

pitoky, если вы юзаете кодеки K-Lite Codec Pack, то МедиаИнфо автоматом интегрируется в Проводник или другой файл-менеджер. Если другие кодеки, то скачиваете отдельно прогу MediaInfo.
 

Понятно, буду иметть ввиду. Спасибо
 

Отличный сюжет, картинка и стерео с небольшими вылетами! Я в восторге от этой экранизации самими создателями игры! Спасибо за раздачу в HD, долго искал)