Торренты   
 
 

 

Парк ужасов 5D [2015 г., Anaglyph, yellow'blue]

Рейтинг 3D:
1 голосов
8.0
Рейтинг фильма:
1 голосов
8.0
 
Вы должны быть авторизированы,
чтобы ставить оценки


Парк ужасов 5D
Год выпуска: 2015
Страна: Россия
Жанр: Ужасы
Продолжительность: 00:04:12
Описание: Ролик 5D
Формат 3D: Anaglyph
Цвета очков:

Скриншоты

Media Info

Общее Уникальный идентификатор : 168348648403719580577546155723716462494 (0x7EA6C532C2870C1E037BA147C20E879E) Полное имя : D:\Проектор 3D\Атракцион 5D\Парк ужасов 5D.mkv Формат : Matroska Версия формата : Version 2 Размер файла : 297 Мбайт Продолжительность : 7 м. 59 с. Общий поток : 5202 Кбит/сек Программа кодирования : Lavf51.12.1 Библиотека кодирования : Lavf51.12.1 Видео Идентификатор : 1 Формат : AVC Формат/Информация : Advanced Video Codec Профиль формата : Baseline@L4.0 Параметр CABAC формата : Нет Параметр ReFrames формата : 1 кадр Параметр GOP формата : M=1, N=12 Идентификатор кодека : V_MPEG4/ISO/AVC Продолжительность : 7 м. 59 с. Битрейт : 4970 Кбит/сек Ширина : 1920 пикселей Высота : 1080 пикселей Соотношение сторон : 16:9 Режим частоты кадров : Постоянный Частота кадров : 29,970 кадров/сек Цветовое пространство : YUV Субдискретизация насыщенности : 4:2:0 Битовая глубина : 8 бит Тип развёртки : Прогрессивная Бит/(Пиксели*Кадры) : 0.080 Размер потока : 284 Мбайт (96%) Default : Да Forced : Нет Аудио Идентификатор : 2 Формат : MPEG Audio Версия формата : Version 1 Профиль формата : Layer 3 Режим : Joint stereo Расширение режима : MS Stereo Идентификатор кодека : A_MPEG/L3 Идентификатор кодека/Подсказка : MP3 Продолжительность : 7 м. 59 с. Вид битрейта : Постоянный Битрейт : 128 Кбит/сек Каналы : 2 канала Частота : 44,1 КГц Метод сжатия : С потерями Размер потока : 7,31 Мбайт (2%) Default : Да Forced : Нет
Благодарности релизеру (6)

Торрент:

Статус:

Размер:

Зарегистрирован   [ 2015-12-19 10:52 ]

* не проверено

297 MB

 
 Мнение о фильме (5)





На проекторе смотрится бесподобно,глаза к носу приезжают
 

colorcode 3d
 

Выкладывай, посмотрим. Спасибо заранее.
 

ютюб)
 

крутой! а есть еще ролики для 5д?