Торренты   
 
 

 

Монстры на каникулах 2 / Hotel Transylvania 2 (Генндий Тартаковский) [2015, Мультфильм, Фэнтези, Комедия, Семейный, BDrip, 1080p]Full OverUnder / Вертикальная стереопара

Рейтинг 3D:
9 голосов
8.1
Рейтинг фильма:
10 голосов
7.9
 
Вы должны быть авторизированы,
чтобы ставить оценки


Монстры на каникулах 2 / Hotel Transylvania 2
Год выпуска: 2015
Страна: США (Columbia Pictures, LStar Capital, Sony Pictures Animation)
Жанр: Мультфильм, Фэнтези, Комедия, Семейный
Продолжительность: 01:29:18
Перевод: Профессиональный дублированный(Лицензия)
Русские субтитры: нет
Режиссер: Генндий Тартаковский / Genndy Tartakovsky
В ролях: Адам Сэндлер, Энди Сэмберг, Селена Гомес, Кевин Джеймс, Стив Бушеми, Дэвид Спейд, Кигэн-Майкл Ки, Эшер Блинкофф, Фрэн Дрешер, Молли Шеннон
Описание: Граф Дракула выдает свою очаровательную дочь замуж за парня из мира людей, и у молодой «смешанной» пары рождается сын. Станет ли этот ребенок человеком или вампиром?
Сэмпл: http://sendfile.su/1198623
Качество: BDrip
Контейнер: MKV
Формат 3D: OverUnder / Вертикальная стереопара
Порядок ракурсов: левый ракурс первый
Видео кодек: x264
Аудио кодек: AC3
Видео: AVC / High@L5.0 / 23,976 fps / 1920х2080 /9263 Кбит/сек
Аудио:Русский / AC3 / 48 KHz / 5.1 ch / 640 Кбит/сек(Лицензия)
Аудио 2: Английский / AC3 / 48 KHz / 5.1 ch / 640 Кбит/сек
Релиз группы: ВНИМАНИЕ ! На встроенных ТВ-плеерах работать не будет!!!
ТВ Samsung в названии которого есть надпись Ultra HD , и LG Ultra HD 800 серии(исключение: LG UB850v не воспроизводит),Xiaomi Mi TV 2 воспроизводят полные стереопары встроенными плеерами
Железные плееры на которых воспроизводятся полные стереопары:Popcorn C-200 , Dune HD Smart D1 , Dune HD DUO , Dune HD Smart H1 , Dune HD Smart B1 , Dune HD Max , Dune HD TV-303D , Dune HD Base 3D, Philips HMP7001
29.01.2016. Релиз обновлён русская звуковая дорожка iTunes заменена на лицензию.
Желающие, скачайте заново торрент-файл.

MediaInfo

Общее
Уникальный идентификатор : 246302462742835006737668161331069570385 (0xB94C20FB7AC989AB8F918E90F8B1CD51)
Полное имя : E:\закачки\Hotel Transylvania 2.Rip by SeRoGa00.mkv
Формат : Matroska
Версия формата : Version 2
Размер файла : 6,55 Гбайт
Продолжительность : 1 ч. 29 м.
Общий поток : 10,5 Мбит/сек
Дата кодирования : UTC 2015-12-29 11:08:14
Программа кодирования : mkvmerge v3.4.0 ('Rapunzel') сборка от May 15 2010 09:38:20
Библиотека кодирования : libebml v0.8.0 + libmatroska v0.9.0
Видео
Идентификатор : 1
Формат : AVC
Формат/Информация : Advanced Video Codec
Профиль формата : High@L5.0
Параметр CABAC формата : Да
Параметр ReFrames формата : 4 кадра
Идентификатор кодека : V_MPEG4/ISO/AVC
Продолжительность : 1 ч. 29 м.
Битрейт : 9263 Кбит/сек
Ширина : 1920 пикселей
Высота : 2080 пикселей
Соотношение сторон : 0,923
Частота кадров : 23,976 кадра/сек
Цветовое пространство : YUV
Субдискретизация насыщенности : 4:2:0
Битовая глубина : 8 бит
Тип развёртки : Прогрессивная
Бит/(Пиксели*Кадры) : 0.097
Размер потока : 5,78 Гбайт (88%)
Заголовок : Rip by SeRoGa00
Библиотека кодирования : x264 core 148 r2638 7599210
Настройки программы : cabac=1 / ref=4 / deblock=1:-3:-3 / analyse=0x3:0x113 / me=umh / subme=10 / psy=1 / psy_rd=1.00:0.15 / mixed_ref=1 / me_range=24 / chroma_me=1 / trellis=2 / 8x8dct=1 / cqm=0 / deadzone=21,11 / fast_pskip=1 / chroma_qp_offset=-3 / threads=9 / lookahead_threads=2 / sliced_threads=0 / nr=0 / decimate=1 / interlaced=0 / bluray_compat=0 / constrained_intra=0 / bframes=10 / b_pyramid=2 / b_adapt=2 / b_bias=0 / direct=3 / weightb=1 / open_gop=0 / weightp=2 / keyint=250 / keyint_min=23 / scenecut=40 / intra_refresh=0 / rc_lookahead=60 / rc=crf / mbtree=1 / crf=18.0 / qcomp=0.60 / qpmin=10 / qpmax=69 / qpstep=4 / vbv_maxrate=40000 / vbv_bufsize=50000 / crf_max=0.0 / nal_hrd=none / filler=0 / ip_ratio=1.40 / aq=1:1.00
Язык : English
Default : Нет
Forced : Нет
Аудио #1
Идентификатор : 2
Формат : AC-3
Формат/Информация : Audio Coding 3
Расширение режима : CM (complete main)
Параметр Endianness формата : Big
Идентификатор кодека : A_AC3
Продолжительность : 1 ч. 29 м.
Вид битрейта : Постоянный
Битрейт : 640 Кбит/сек
Каналы : 6 каналов
Расположение каналов : Front: L C R, Side: L R, LFE
Частота : 48,0 КГц
Битовая глубина : 16 бит
Метод сжатия : С потерями
Размер потока : 245 Мбайт (4%)
Язык : Russian
Default : Да
Forced : Нет
Аудио #2
Идентификатор : 3
Формат : AC-3
Формат/Информация : Audio Coding 3
Расширение режима : CM (complete main)
Параметр Endianness формата : Big
Идентификатор кодека : A_AC3
Продолжительность : 1 ч. 29 м.
Вид битрейта : Постоянный
Битрейт : 640 Кбит/сек
Каналы : 6 каналов
Расположение каналов : Front: L C R, Side: L R, LFE
Частота : 48,0 КГц
Битовая глубина : 16 бит
Метод сжатия : С потерями
Размер потока : 409 Мбайт (6%)
Язык : English
Default : Нет
Forced : Нет

Скриншоты


Благодарности релизеру (6)

Торрент:

Статус:

Размер:

Зарегистрирован   [ 2016-01-29 12:36 ]

* не проверено

6.71 GB

 
 Мнение о фильме (12)





"Видео: AVC / High@L5.0 / 23,976 fps / 1920х2080 /9263 Кбит/сек"
Разрешение полезной части экрана - не 1040, а 1036 строк.
 

Я знаю, раньше обрезал полезную часть http://torrents3d.ru/article/3185/. Сейчас использую "официальное разрешение экрана", так как часто бывает на протяжении фильма полосы плавают, то больше то меньше.
 

СПАСИБО!!! С Наступающим !!!)))
 

УДАЛЕНО-Желаешь банного "поздравления" или просто перебрал?
Ash61
 

Ash61, алкоголь тут ни причем. Просто человек в очереди не стоял, когда мозги раздавали.
 

Очень смешно, нет вообще не пил, просто написал так как есть, разрешение нифига не 1080
 

А очень прикольно когда вы постоянно удаляете сообщение с критикой, оставляете только "ОООО супер спасибо", а за что спасибо, за гавнокачество???
 

SkyJumper, Вы пишите аргументированно - где неправильное разрешение, на основании чего решили что плохое качество и т.д. Потому что разрешение всегда соответствует исходнику, с настройками кодирования тоже все ок. И пишите ВЕЖЛИВО, гопников в России и так хватает. Удаляют не за то, ЧТО Вы написали, а КАК.
 

SkyJumper, я крайне редко удаляю сообщения, но за такое хамство, вообще-то, обычно банят, как минимум, на некоторое время! Тем более - претензии абсолютно безосновательны и безграмотны.
 

Если кого обидел, извиняюсь, но это разрешение нормально на FullHD не отображается, а телик вообще пишет 800 на сколько там. На компе тоже, картинка просто по середине в плеере. А 1080 нормальное будет?
 

Раньше всегда пользовался этим трэкером, теперь очень часто, да почти постоянно казусы. В других местах качаю нормально всё. А мне нравится этот сайт :(
 

мульт смотрел в кинотеатре !3D просто никакое!!!сюжет тоже неайс...