Торренты   
 
 


Упc… Нoй уплыл! / Oоops! Noah is Gоnе (Тоби Генкель, Шон МакКормак) [2015 г., Anamorph OverUnder]

Рейтинг 3D:
8 голосов
6.4
Рейтинг фильма:
7 голосов
6.2
 
Вы должны быть авторизированы,
чтобы ставить оценки


Упc… Нoй уплыл! / Oоops! Noah is Gоnе
Год выпуска: 2015
Страна: Германия, Бельгия, Люксембург, Ирландия
Жанр: Мультфильм, комедия, приключения
Продолжительность: 1:26:54
Перевод: Профессиональный (полное дублирование)
Режиссер: Тоби Генкель, Шон МакКормак
В ролях: Дермот Магеннис, Каллум Малони, Тара Флинн, Пол Тайлак, Алан Стэнфорд, Эйлин Митен, Патрик Фицсимонс, Карла Бекер, Франциска Фриде
Описание: Грядет всемирный потоп, и старина Ной вот-вот отчалит. Самое время для зверей занять свои каюты. Но, увы, повезло не всем — кое-кто фейсконтроль не прошел. Теперь ему придется как следует постараться, чтобы перехитрить судьбу и заскочить на подножку уплывающего ковчега.
Качество: BDRip
Формат 3D: Anamorph OverUnder
Видео: h.264 1920x1080 ~10.5 Mbps
Аудио:
1. Русский - AC3 / 5.1 Ch / 448 kbps (дубляж - iTunes)

Скриншоты

Media Info

Complete name : G:\Temp\Ной\Ной.mkv
Format : Matroska
Format version : Version 2
File size : 6.79 GiB
Duration : 1h 26mn
Overall bit rate mode : Variable
Overall bit rate : 11.2 Mbps
Movie name : OOOPS__NOAH_IS_GONE_3D.Title0
Encoded date : UTC 2016-01-03 08:37:05
Writing library : libebml v0.7.8 + libmatroska v0.8.1
Video
ID : 1
Format : AVC
Format/Info : Advanced Video Codec
Format profile : High@L4.0
Format settings, CABAC : Yes
Format settings, GOP : M=3, N=24
Codec ID : V_MPEG4/ISO/AVC
Duration : 1h 26mn
Bit rate mode : Variable
Bit rate : 10.5 Mbps
Maximum bit rate : 16.3 Mbps
Width : 1 920 pixels
Height : 1 080 pixels
Display aspect ratio : 16:9
Frame rate mode : Constant
Frame rate : 23.976 fps
Color space : YUV
Chroma subsampling : 4:2:0
Bit depth : 8 bits
Scan type : Progressive
Bits/(Pixel*Frame) : 0.211
Stream size : 6.38 GiB (94%)
Default : Yes
Forced : No
Color primaries : BT.709
Transfer characteristics : BT.709
Matrix coefficients : BT.709
Audio
ID : 2
Format : AC-3
Format/Info : Audio Coding 3
Mode extension : CM (complete main)
Format settings, Endianness : Big
Codec ID : A_AC3
Duration : 1h 26mn
Bit rate mode : Constant
Bit rate : 448 Kbps
Channel(s) : 6 channels
Channel positions : Front: L C R, Side: L R, LFE
Sampling rate : 48.0 KHz
Bit depth : 16 bits
Compression mode : Lossy
Stream size : 278 MiB (4%)
Language : Russian
Default : Yes
Forced : No
Благодарности релизеру (30)

Торрент:

Статус:

Размер:

Зарегистрирован   [ 2016-01-03 13:08 ]

* не проверено

6.79 GB

 
 Мнение о фильме (1)





Какой же унылый фильм. Осилили только половину, а так старались.