Торренты   
 
 

 

Марсианин / The Martian (Ридли Скотт / Ridley) [2015, Фантастика, Приключения, BDrip, 1080p]Full OverUnder / Вертикальная стереопара

Рейтинг 3D:
16 голосов
8.0
Рейтинг фильма:
16 голосов
7.0
 
Вы должны быть авторизированы,
чтобы ставить оценки


Марсианин / The Martian
Год выпуска: 2015
Страна: США, Великобритания
Жанр: Фантастика, Приключения
Продолжительность: 02:21:38
Перевод: Профессиональный дублированный(Лицензия)
Русские субтитры: нет
Режиссер: Ридли Скотт / Ridley Scott
В ролях: Мэтт Дэймон, Джессика Честейн, Чиветель Эджиофор, Кристен Уиг, Джефф Дэниелс, Майкл Пенья, Шон Бин, Кейт Мара, Себастьян Стэн, Аксель Хенни
Описание: Марсианская миссия «Арес-3» в процессе работы была вынуждена экстренно покинуть планету из-за надвигающейся песчаной бури. Инженер и биолог Марк Уотни получил повреждение скафандра во время песчаной бури. Сотрудники миссии, посчитав его погибшим, эвакуировались с планеты, оставив Марка одного.
Очнувшись, Уотни обнаруживает, что связь с Землёй отсутствует, но при этом полностью функционирует жилой модуль. Главный герой начинает искать способ продержаться на имеющихся запасах еды, витаминов, воды и воздуха ещё 4 года до прилёта следующей миссии «Арес-4».
Сэмпл: http://sendfile.su/1191939
Качество: BDrip
Контейнер: MKV
Формат 3D: OverUnder / Вертикальная стереопара
Порядок ракурсов: левый ракурс первый
Видео кодек: x264
Аудио кодек: AC3
Видео: AVC / High@L5.0 / 23,976 fps / 1920х1600 /17,8 Мбит/сек
Аудио: Русский / DTS / 48 KHz / 5.1 ch / 768 Кбит/сек(Лицензия)
Аудио 2: Английский / AC3 / 48 KHz / 5.1 ch / 640 Кбит/сек
Релиз группы: ВНИМАНИЕ ! На встроенных ТВ-плеерах работать не будет!!!
ТВ Samsung в названии которого есть надпись Ultra HD , и LG Ultra HD 800 серии(исключение: LG UB850v не воспроизводит),Xiaomi Mi TV 2 воспроизводят полные стереопары встроенными плеерами
Железные плееры на которых воспроизводятся полные стереопары:Popcorn C-200 , Dune HD Smart D1 , Dune HD DUO , Dune HD Smart H1 , Dune HD Smart B1 , Dune HD Max , Dune HD TV-303D , Dune HD Base 3D, Philips HMP7001
10.01.2016. Релиз обновлён русская звуковая дорога iTunes заменена на лицензию.
Желающие, скачайте заново торрент-файл.

MediaInfo

Общее
Уникальный идентификатор : 254940669059797073006748903888530658533 (0xBFCBC96F8DF9A72386A0DF59C3BF54E5)
Полное имя : E:\закачки\The Martian.Rip by SeRoGa00.mkv
Формат : Matroska
Версия формата : Version 2
Размер файла : 19,4 Гбайт
Продолжительность : 2 ч. 21 м.
Общий поток : 19,6 Мбит/сек
Дата кодирования : UTC 2016-01-10 14:21:15
Программа кодирования : mkvmerge v3.4.0 ('Rapunzel') сборка от May 15 2010 09:38:20
Библиотека кодирования : libebml v0.8.0 + libmatroska v0.9.0
Видео
Идентификатор : 1
Формат : AVC
Формат/Информация : Advanced Video Codec
Профиль формата : High@L5.0
Параметр CABAC формата : Да
Параметр ReFrames формата : 4 кадра
Идентификатор кодека : V_MPEG4/ISO/AVC
Продолжительность : 2 ч. 21 м.
Битрейт : 17,8 Мбит/сек
Ширина : 1920 пикселей
Высота : 1600 пикселей
Соотношение сторон : 1,200
Частота кадров : 23,976 кадра/сек
Цветовое пространство : YUV
Субдискретизация насыщенности : 4:2:0
Битовая глубина : 8 бит
Тип развёртки : Прогрессивная
Бит/(Пиксели*Кадры) : 0.242
Размер потока : 17,6 Гбайт (91%)
Заголовок : Rip by SeRoGa00
Библиотека кодирования : x264 core 148 r2638 7599210
Настройки программы : cabac=1 / ref=4 / deblock=1:-3:-3 / analyse=0x3:0x113 / me=umh / subme=10 / psy=1 / psy_rd=1.00:0.15 / mixed_ref=1 / me_range=24 / chroma_me=1 / trellis=2 / 8x8dct=1 / cqm=0 / deadzone=21,11 / fast_pskip=1 / chroma_qp_offset=-3 / threads=9 / lookahead_threads=2 / sliced_threads=0 / nr=0 / decimate=1 / interlaced=0 / bluray_compat=0 / constrained_intra=0 / bframes=10 / b_pyramid=2 / b_adapt=2 / b_bias=0 / direct=3 / weightb=1 / open_gop=0 / weightp=2 / keyint=250 / keyint_min=23 / scenecut=40 / intra_refresh=0 / rc_lookahead=60 / rc=crf / mbtree=1 / crf=18.0 / qcomp=0.60 / qpmin=10 / qpmax=69 / qpstep=4 / vbv_maxrate=40000 / vbv_bufsize=50000 / crf_max=0.0 / nal_hrd=none / filler=0 / ip_ratio=1.40 / aq=1:1.00
Язык : English
Default : Нет
Forced : Нет
Аудио #1
Идентификатор : 2
Формат : DTS
Формат/Информация : Digital Theater Systems
Идентификатор кодека : A_DTS
Продолжительность : 2 ч. 21 м.
Вид битрейта : Постоянный
Битрейт : 768 Кбит/сек
Каналы : 6 каналов
Расположение каналов : Front: L C R, Side: L R, LFE
Частота : 48,0 КГц
Битовая глубина : 24 бит
Метод сжатия : С потерями
Размер потока : 764 Мбайт (4%)
Язык : Russian
Default : Да
Forced : Нет
Аудио #2
Идентификатор : 3
Формат : AC-3
Формат/Информация : Audio Coding 3
Расширение режима : CM (complete main)
Параметр Endianness формата : Big
Идентификатор кодека : A_AC3
Продолжительность : 2 ч. 21 м.
Вид битрейта : Постоянный
Битрейт : 640 Кбит/сек
Каналы : 6 каналов
Расположение каналов : Front: L C R, Side: L R, LFE
Частота : 48,0 КГц
Битовая глубина : 16 бит
Метод сжатия : С потерями
Размер потока : 648 Мбайт (3%)
Язык : English
Default : Нет
Forced : Нет

Скриншоты


Благодарности релизеру (15)

Торрент:

Статус:

Размер:

Зарегистрирован   [ 2016-01-10 19:16 ]

* не проверено

19.38 GB

 
 Мнение о фильме (14)





Thanks :)
 

Отличный фильм!
 

Автору огромное спасибо!
 

Если в технические детали не занудствовать, то вполне годнота.
 

Хорошее качество. Благодарю!
 

Я по логу скринам и логу вижу, что качество, как минимум - выше среднего.
Ребята, включайте голову и отделяйте мух от котлет - проблемы качества именно рипов(картинки на экране) и сбоев в контрольных суммах данных("битых" файлов). Во втором случае - ваши проблемы.
ps serega768, сделайте, плз, в таких же настройках обычную пару - та, что есть на трекере не годится. Не знаю уж почему рип Александра здесь не хотят размещать.
pps Не только к вам, а вообще ко всем релизерам: делайте сэмпл - гораздо нагляднее скринов.
 

ps serega768, сделайте, плз, в таких же настройках обычную пару - та, что есть на трекере не годится. Не знаю уж почему рип Александра здесь не хотят размещать.
Если речь о моём анаморфе, то выложили несколько дней назад - http://torrents3d.ru/article/11488/
 

Amstaff,
Не отвлекайся....жду марсиЯнина
 

killer29, а я-то че? комп шуршит, кодит помаленьку... Мне просто интересно, что за дискриминация по возрасту? Мать их...
 

Закончили флейминг!
Топик подчистил.
 

Извините, если комментарий не в тему. Хочу выразить огромную благодарность всем, кто помогает нам смотреть фильмы в 3D. Хочу немного о себе. Я пенсионер. Не имею Blu-ray плейера, покупать диски не могу, поэтому приходиться качать торренты. Я редко пишу комментарии, но стараюсь как можно дольше оставаться на раздаче. Сразу после скачивания фильма я не всегда могу посмотреть его сразу (приношу свои извинения), поэтому не могу дать своевременную оценку фильма. Однако думаю, что на главное на вашем торрент-трекере главное не давать оценку фильма, а что более важно, давать оценку именно 3D. У каждого свои вкусы, кому-то фильм нравится, кому-то нет.
 

voskob, Спасибо за добрые слова! Давать оценку фильму и качеству рипа не является обязанностью. А вот то, что Вы как можно дольше остаетесь на раздаче - за это тоже большое спасибо! :)
 

без чорных полос?
 

Хорошая фантастика, понравилась.