Торренты   
 
 

 

Марсианин в 3Д / The Martian 3D (Ридли Скотт / Ridley Scott) [2015, Фантастика, Приключения, BDrip-AVC] Half OverUnder / Вертикальная анаморфная стереопара

Рейтинг 3D:
13 голосов
7.2
Рейтинг фильма:
15 голосов
5.8
 
Вы должны быть авторизированы,
чтобы ставить оценки


Марсианин в 3Д / The Martian 3D
Год выпуска: 2015
Страна: США, Великобритания
Жанр: Фантастика, Приключения
Продолжительность: 02:21:38
Перевод: Профессиональный дублированный - Лицензия
Режиссер: Ридли Скотт
В ролях: Мэтт Дэймон, Джессика Честейн, Чиветел Эджиофор, Кристен Уиг, Джефф Дэниелс, Майкл Пенья, Шон Бин, Кейт Мара, Себастьян Стэн, Аксель Хенни, Бенедикт Вонг, Маккензи Дэвис, Дональд Гловер, Ник Мохаммед, Чен Шу, Эдди Ко, Энцо Чиленти, Джонатан Арис, Граффадд Глин, Наоми Скотт
Описание: Марсианская миссия «Арес-3» в процессе работы была вынуждена экстренно покинуть планету из-за надвигающейся песчаной бури. Инженер и биолог Марк Уотни получил повреждение скафандра во время песчаной бури. Сотрудники миссии, посчитав его погибшим, эвакуировались с планеты, оставив Марка одного. Очнувшись, Уотни обнаруживает, что связь с Землёй отсутствует, но при этом полностью функционирует жилой модуль. Главный герой начинает искать способ продержаться на имеющихся запасах еды, витаминов, воды и воздуха ещё 4 года до прилёта следующей миссии «Арес-4».
Качество: BDRip (by Ash61)
Контейнер: MKV
Формат 3D: Half OverUnder / Вертикальная анаморфная стереопара
Порядок ракурсов: левый ракурс первый
Видео: AVC / 23,976 fps / 1920х1080p / 12.2 Mbps
Аудио:
#1 - Русский / AC3 / 48 KHz / 5.1 ch / 640 Kbps (Дубляж - BD 3D Eur)
#2 - Украинский / AC3 / 48 KHz / 5.1 ch / 448 Kbps (Дубляж - BD 3D Eur)
#3 - Английский / AC3 / 48 KHz / 5.1 ch / 640 Kbps (Original - BD 3D)
Субтитры (SRT):
Вшитые (softsub):
#1 - Русские Форсированные (включены по умолчанию)
#2 - Русские Полные
#3 - Украинские Форсированные
#4 - Украинские Полные
#5 - English Full
Внешние (UTF-8):
#1 - Русские Форсированные (включены по умолчанию)
#2 - Украинские Форсированные
10.01.2016. Релиз обновлён - русская и украинская дороги iTunes заменены на лицензию.
Желающие, скачайте заново торрент-файл.

MI :

General
Unique ID : 172921197206057602598389182953814553778 (0x821769428ED5A01D95D15FB4F398F4B2)
Complete name : TheMartian(2015)3D-halfOU(Ash61)\TheMartian(2015)3D-halfOU(Ash61).mkv
Format : Matroska
Format version : Version 2
File size : 14.0 GiB
Duration : 2h 21mn
Overall bit rate : 14.2 Mbps
Movie name : Марсианин / The Martian (2015) в 3Д
Encoded date : UTC 2016-01-09 23:19:11
Writing application : mkvmerge v5.8.0 ('No Sleep / Pillow') built on Sep 2 2012 15:37:04
Writing library : libebml v1.2.3 + libmatroska v1.3.0
Video
ID : 1
Format : AVC
Format/Info : Advanced Video Codec
Format profile : High@L4.1
Format settings, CABAC : Yes
Format settings, ReFrames : 4 frames
Codec ID : V_MPEG4/ISO/AVC
Duration : 2h 21mn
Bit rate : 12.2 Mbps
Width : 1 920 pixels
Height : 1 080 pixels
Display aspect ratio : 16:9
Frame rate : 23.976 fps
Color space : YUV
Chroma subsampling : 4:2:0
Bit depth : 8 bits
Scan type : Progressive
Bits/(Pixel*Frame) : 0.245
Stream size : 12.0 GiB (86%)
Title : BDRip by Ash61
Writing library : x264 core 146 r2538 121396c
Encoding settings : cabac=1 / ref=4 / deblock=1:-3:-3 / analyse=0x3:0x113 / me=umh / subme=10 / psy=1 / psy_rd=1.00:0.00 / mixed_ref=1 / me_range=32 / chroma_me=1 / trellis=2 / 8x8dct=1 / cqm=0 / deadzone=21,11 / fast_pskip=1 / chroma_qp_offset=-2 / threads=12 / lookahead_threads=3 / sliced_threads=0 / nr=0 / decimate=1 / interlaced=0 / bluray_compat=0 / constrained_intra=0 / bframes=11 / b_pyramid=2 / b_adapt=2 / b_bias=0 / direct=3 / weightb=1 / open_gop=0 / weightp=2 / keyint=250 / keyint_min=23 / scenecut=40 / intra_refresh=0 / rc_lookahead=60 / rc=crf / mbtree=1 / crf=15.5 / qcomp=0.70 / qpmin=0 / qpmax=69 / qpstep=4 / vbv_maxrate=40000 / vbv_bufsize=30000 / crf_max=0.0 / nal_hrd=none / filler=0 / frame-packing=4 / ip_ratio=1.40 / aq=1:0.70
Language : English
Default : Yes
Forced : No
Audio #1
ID : 2
Format : AC-3
Format/Info : Audio Coding 3
Mode extension : CM (complete main)
Codec ID : A_AC3
Duration : 2h 21mn
Bit rate mode : Constant
Bit rate : 640 Kbps
Channel(s) : 6 channels
Channel positions : Front: L C R, Side: L R, LFE
Sampling rate : 48.0 KHz
Bit depth : 16 bits
Compression mode : Lossy
Stream size : 648 MiB (5%)
Title : Дубляж - BD 3D Eur
Language : Russian
Default : Yes
Forced : No
Audio #2
ID : 3
Format : AC-3
Format/Info : Audio Coding 3
Mode extension : CM (complete main)
Codec ID : A_AC3
Duration : 2h 21mn
Bit rate mode : Constant
Bit rate : 448 Kbps
Channel(s) : 6 channels
Channel positions : Front: L C R, Side: L R, LFE
Sampling rate : 48.0 KHz
Bit depth : 16 bits
Compression mode : Lossy
Stream size : 454 MiB (3%)
Title : Дубляж - BD 3D Eur
Language : Ukrainian
Default : No
Forced : No
Audio #3
ID : 4
Format : AC-3
Format/Info : Audio Coding 3
Mode extension : CM (complete main)
Codec ID : A_AC3
Duration : 2h 21mn
Bit rate mode : Constant
Bit rate : 640 Kbps
Channel(s) : 6 channels
Channel positions : Front: L C R, Side: L R, LFE
Sampling rate : 48.0 KHz
Bit depth : 16 bits
Compression mode : Lossy
Stream size : 648 MiB (5%)
Title : Original - BD 3D
Language : English
Default : No
Forced : No
Text #1
ID : 5
Format : UTF-8
Codec ID : S_TEXT/UTF8
Codec ID/Info : UTF-8 Plain Text
Title : Форсированные
Language : Russian
Default : Yes
Forced : No
Text #2
ID : 6
Format : UTF-8
Codec ID : S_TEXT/UTF8
Codec ID/Info : UTF-8 Plain Text
Title : Полные
Language : Russian
Default : No
Forced : No
Text #3
ID : 7
Format : UTF-8
Codec ID : S_TEXT/UTF8
Codec ID/Info : UTF-8 Plain Text
Title : Форсированные
Language : Ukrainian
Default : No
Forced : No
Text #4
ID : 8
Format : UTF-8
Codec ID : S_TEXT/UTF8
Codec ID/Info : UTF-8 Plain Text
Title : Полные
Language : Ukrainian
Default : No
Forced : No
Text #5
ID : 9
Format : UTF-8
Codec ID : S_TEXT/UTF8
Codec ID/Info : UTF-8 Plain Text
Title : Forced
Language : English
Default : No
Forced : No
Text #6
ID : 10
Format : UTF-8
Codec ID : S_TEXT/UTF8
Codec ID/Info : UTF-8 Plain Text
Title : Full
Language : English
Default : No
Forced : No
Text #7
ID : 11
Format : UTF-8
Codec ID : S_TEXT/UTF8
Codec ID/Info : UTF-8 Plain Text
Title : SDH
Language : English
Default : No
Forced : No
Menu
00:00:00.000 : :1
00:03:22.284 : :2
00:10:08.982 : :3
00:15:24.590 : :4
00:18:25.186 : :5
00:21:34.375 : :6
00:24:28.090 : :7
00:28:52.689 : :8
00:31:36.644 : :9
00:34:21.099 : :10
00:39:13.434 : :11
00:41:21.769 : :12
00:46:23.530 : :13
00:49:25.086 : :14
00:56:15.746 : :15
00:59:40.492 : :16
01:02:23.822 : :17
01:06:53.134 : :18
01:09:52.979 : :19
01:13:51.301 : :20
01:18:38.255 : :21
01:22:52.466 : :22
01:30:41.269 : :23
01:37:30.094 : :24
01:43:31.997 : :25
01:46:16.286 : :26
01:50:18.737 : :27
01:54:07.966 : :28
01:57:49.311 : :29
02:04:41.681 : :30
02:11:05.731 : :31
02:13:28.792 : :32
-

Скриншоты



Благодарности релизеру (26)

Торрент:

Статус:

Размер:

Зарегистрирован   [ 2016-01-10 09:06 ]

* не проверено

14.02 GB

 
 Мнение о фильме (8)





Дождался, ура!
 

качество супер! на встроенном плеере элжи отлично работает, голос картика не расходятся. Забавно в фильме про русских ни слова, союзник космическая держава сша это китайцы
 

Релизеру как всегда респект. А,фильм,двух часовая тягомотина о величии пиндосов. Сырой сценарий,никакущая игра актёров,в общем полный бред. На любителя кинишко,да и 3D слабенькое.
 

Релиз обновлён - русская и украинская дороги iTunes заменены на лицензию.
Желающие, скачайте заново торрент-файл.
 

Астронафт в открытом космосе проделал дырку в заднице скафандра для выхода воздуха и полетел на реактивной тяге. И так весь фильм. Чушь редкостная. Ребёнок спросил: "А где 3Д" и не смог досмотреть до конца - скучно. "Вспомнить всё" со шварцем - научный фильм по сравнению с этой фигнёй.
 

Ребята встаньте на раздачу плиз)))
 

andrei6363,
 

Спасибо)))