Торренты   
 
 

 

Шрек / Shrek 3D (Эндрю Адамсон, Вики Дженсон / Andrew Adamson, Vicky Jenson) [2001 г., 720р, OverUnder]

Рейтинг 3D:
1 голосов
10
Рейтинг фильма:
1 голосов
10
 
Вы должны быть авторизированы,
чтобы ставить оценки


Шрек / Shrek
Год выпуска: 2001
Страна: США
Жанр: фэнтези, комедия, приключения, семейный, мультфильм
Продолжительность: 01:30:01 час
Перевод: Профессиональный (полное дублирование)
Режиссер: Эндрю Адамсон, Вики Дженсон / Andrew Adamson, Vicky Jenson
В ролях: Майк Майерс, Эдди Мёрфи, Кэмерон Диаз, Джон Литгоу, Венсан Кассель, Питер Дэннис, Клив Пирс, Джим Каммингс, Бобби Блок, Крис Миллер
Описание: Жил да был в сказочном государстве большой зеленый великан по имени Шрек. Жил он в гордом одиночестве в лесу, на болоте, которое считал своим. Но однажды злобный коротышка - лорд Фаркуад, правитель волшебного королевства, безжалостно согнал на Шреково болото всех сказочных обитателей.
И беспечной жизни зеленого тролля пришел конец. Но лорд Фаркуад пообещал вернуть Шреку болото, если великан добудет ему прекрасную принцессу Фиону, которая томится в неприступной башне, охраняемой огнедышащим драконом...
Потрясающий мультфильм занял свое заслуженное место в пятерке самых кассовых мультфильмов всех времен.
Доп. информация: Качество: 3DBDrip 720p
Продолжительность: 01:30:01 час.
Формат 3d: OverUnder / Вертикальная стереопара, левый ракурс выше.
Формат: MKV
Видео кодек: H.264
Аудио кодек: AС3
Видео: MPEG4 Video (H264), 1280x1440, 23.98fps, 6886 Kbps, 0.156 bit/pixel.
Аудио: Русский: AC3 (6 ch), 48 kHz, 640 kbps
Формат 3d: OverUnder

Скриншоты


Mediainfo

Полное имя : Shrek_3D_BDRip_720p.mkv
Формат : Matroska
Размер файла : 4,83 Гбайт
Продолжительность : 1 ч. 30 м.
Общий поток : 7679 Кбит/сек
Название фильма : Shrek_3D_BDRip_720p
Дата кодирования : UTC 2011-02-02 12:51:18
Программа кодирования : mkvmerge v4.4.0 (Die Wiederkehr) сборка от Oct 31 2010 21:52:48
Библиотека кодирования : libebml v1.0.0 + libmatroska v1.0.0
Видео
Идентификатор : 1
Формат : AVC
Формат/Информация : Advanced Video Codec
Профиль формата : High@L4.1
Параметр CABAC формата : Да
Параметр ReFrames формата : 3 кадры
Параметры GOP формата : M=4, N=16
Идентификатор кодека : V_MPEG4/ISO/AVC
Продолжительность : 1 ч. 30 м.
Битрейт : 6886 Кбит/сек
Ширина : 1280 пикс.
Высота : 1440 пикс.
Соотношение сторон : 0,889
Частота кадров : 23,976 кадр/сек
Цветовое пространство : YUV
Подвыборка цветности : 4:2:0
Битовая глубина : 8 бит
Тип развёртки : Прогрессивная
Бит/(Пиксели*Кадры) : 0.156
Размер потока : 4,33 Гбайт (90%)
Заголовок : Shrek_3D
Библиотека кодирования : x264 core 112 r1867 22bfd31
Настройки программы : cabac=1 / ref=4 / deblock=1:-2:-2 / analyse=0x3:0x113 / me=umh / subme=9 / psy=1 / psy_rd=1.00:0.00 / mixed_ref=1 / me_range=32 / chroma_me=1 / trellis=0 / 8x8dct=1 / cqm=0 / deadzone=17,6 / fast_pskip=0 / chroma_qp_offset=-2 / threads=12 / sliced_threads=0 / nr=0 / decimate=1 / interlaced=0 / constrained_intra=0 / bframes=3 / b_pyramid=1 / b_adapt=2 / b_bias=0 / direct=1 / weightb=1 / open_gop=0 / weightp=2 / keyint=240 / keyint_min=23 / scenecut=60 / intra_refresh=0 / rc=crf / mbtree=0 / crf=18.0 / qcomp=0.60 / qpmin=10 / qpmax=50 / qpstep=4 / ip_ratio=1.40 / pb_ratio=1.30 / aq=1:1.00
Язык : English
Аудио
Идентификатор : 2
Формат : AC-3
Формат/Информация : Audio Coding 3
Расширение режима : CM (complete main)
Идентификатор кодека : A_AC3
Продолжительность : 1 ч. 30 м.
Вид битрейта : Постоянный
Битрейт : 640 Кбит/сек
Канал(ы) : 6 канала(ов)
Расположение каналов : Front: L C R, Side: L R, LFE
Частота : 48,0 КГц
Битовая глубина : 16 бит
Метод сжатия : С потерями
Размер потока : 412 Мбайт (8%)
Заголовок : Dub
Язык : Russian
Благодарности релизеру (0)

Торрент:

Статус:

Размер:

Зарегистрирован   [ 2011-02-11 23:39 ]

проверено

4.83 GB