Торренты   
 
 


Эверест в 3Д / Everest 3D (Бальтасар Кормакур / Baltasar Kormákur) [2015, Триллер, Драма, Приключения, Биография, История, BDrip-AVC] Half OverUnder / Вертикальная анаморфная стереопара

Рейтинг 3D:
8 голосов
6.2
Рейтинг фильма:
8 голосов
6.2
 
Вы должны быть авторизированы,
чтобы ставить оценки


Эверест / Everest
Год выпуска: 2015
Страна: США, Великобритания, Исландия
Жанр: Триллер, Драма, Приключения, Биография, История
Продолжительность: 02:01:11
Перевод: Профессиональный (полное дублирование)
Режиссер: Бальтасар Кормакур
В ролях: Джейсон Кларк, Джош Бролин, Джейк Джилленхол, Сэм Уортингтон, Джон Хоукс, Майкл Келли, Ингвар Эггерт Сигюрдссон, Кира Найтли, Эмили Уотсон, Робин Райт
Описание: Эверест — великая неприступная гора, покорить вершину которой мечтают многие профессиональные альпинисты. Одна из экспедиций на ее вершину закончилась настоящей трагедией, однако этот факт не останавливает отважных альпинистов.
Опытный инструктор Роб Холл, собрав группу из лучших альпинистов, собирается совершить восхождение на самую высокую вершину планеты. Все эти люди полны мужества и отваги и они не остановятся ни перед чем, пока не поднимутся на вершину Эвереста. Но даже если эта гора покорится им, смогут ли они вернуться обратно живыми и невредимыми?..
Качество: BDRip (by Ash61)
Контейнер: MKV
Формат 3D: Half OverUnder / Вертикальная анаморфная стереопара
Порядок ракурсов: левый ракурс первый
Видео: AVC / 23,976 fps / 1920х1080p / 8195 Kbps
Аудио:
#1 - Русский / AC3 / 48 KHz / 5.1 ch / 448 Kbps (Дубляж - BD Eur)
#2 - Украинский / AC3 / 48 KHz / 2 ch / 192 Kbps (Дубляж) (похоже - Line, типа псевдо-стерео)
#3 - Английский / AC3 / 48 KHz / 5.1 ch / 640 Kbps (Original - BD 3D)
Субтитры (SRT):
Вшитые (softsub):
#1 - Русские Форсированные (включены по умолчанию)
#2 - Русские Полные
#3 - Украинские Форсированные
#4 - Украинские Полные
#5 - English Full
#6 - English SDH
Внешние (UTF-8):
#1 - Русские Форсированные (включены по умолчанию)
#2 - Украинские Форсированные

Скриншоты



Media Info

General
Unique ID : 253086705626916265041619895311024336277 (0xBE66B9FB343C646385DF45932A2D2D95)
Complete name : Everest(2015)3D-halfOU(Ash61)\Everest(2015)3D-halfOU(Ash61).mkv
Format : Matroska
Format version : Version 2
File size : 8.18 GiB
Duration : 2h 1mn
Overall bit rate : 9 668 Kbps
Movie name : Эверест / Everest (2015) в 3Д
Encoded date : UTC 2016-01-07 06:00:13
Writing application : mkvmerge v5.8.0 ('No Sleep / Pillow') built on Sep 2 2012 15:37:04
Writing library : libebml v1.2.3 + libmatroska v1.3.0
Video
ID : 1
Format : AVC
Format/Info : Advanced Video Codec
Format profile : High@L4.1
Format settings, CABAC : Yes
Format settings, ReFrames : 4 frames
Codec ID : V_MPEG4/ISO/AVC
Duration : 2h 1mn
Bit rate : 8 195 Kbps
Width : 1 920 pixels
Height : 1 080 pixels
Display aspect ratio : 16:9
Frame rate : 23.976 fps
Color space : YUV
Chroma subsampling : 4:2:0
Bit depth : 8 bits
Scan type : Progressive
Bits/(Pixel*Frame) : 0.165
Stream size : 6.94 GiB (85%)
Title : BDRip by Ash61
Writing library : x264 core 146 r2538 121396c
Encoding settings : cabac=1 / ref=4 / deblock=1:-3:-3 / analyse=0x3:0x113 / me=umh / subme=10 / psy=1 / psy_rd=1.00:0.00 / mixed_ref=1 / me_range=32 / chroma_me=1 / trellis=2 / 8x8dct=1 / cqm=0 / deadzone=21,11 / fast_pskip=1 / chroma_qp_offset=-2 / threads=12 / lookahead_threads=3 / sliced_threads=0 / nr=0 / decimate=1 / interlaced=0 / bluray_compat=0 / constrained_intra=0 / bframes=10 / b_pyramid=2 / b_adapt=2 / b_bias=0 / direct=3 / weightb=1 / open_gop=0 / weightp=2 / keyint=250 / keyint_min=23 / scenecut=40 / intra_refresh=0 / rc_lookahead=60 / rc=crf / mbtree=1 / crf=16.0 / qcomp=0.70 / qpmin=0 / qpmax=69 / qpstep=4 / vbv_maxrate=40000 / vbv_bufsize=30000 / crf_max=0.0 / nal_hrd=none / filler=0 / frame-packing=4 / ip_ratio=1.40 / aq=1:0.70
Language : English
Default : Yes
Forced : No
Audio #1
ID : 2
Format : AC-3
Format/Info : Audio Coding 3
Mode extension : CM (complete main)
Codec ID : A_AC3
Duration : 2h 1mn
Bit rate mode : Constant
Bit rate : 448 Kbps
Channel(s) : 6 channels
Channel positions : Front: L C R, Side: L R, LFE
Sampling rate : 48.0 KHz
Bit depth : 16 bits
Compression mode : Lossy
Stream size : 388 MiB (5%)
Title : Дубляж - BD Eur
Language : Russian
Default : Yes
Forced : No
Audio #2
ID : 3
Format : AC-3
Format/Info : Audio Coding 3
Mode extension : CM (complete main)
Codec ID : A_AC3
Duration : 2h 1mn
Bit rate mode : Constant
Bit rate : 192 Kbps
Channel(s) : 2 channels
Channel positions : Front: L R
Sampling rate : 48.0 KHz
Bit depth : 16 bits
Compression mode : Lossy
Stream size : 166 MiB (2%)
Title : Дубляж - Line
Language : Ukrainian
Default : No
Forced : No
Audio #3
ID : 4
Format : AC-3
Format/Info : Audio Coding 3
Mode extension : CM (complete main)
Codec ID : A_AC3
Duration : 2h 1mn
Bit rate mode : Constant
Bit rate : 640 Kbps
Channel(s) : 6 channels
Channel positions : Front: L C R, Side: L R, LFE
Sampling rate : 48.0 KHz
Bit depth : 16 bits
Compression mode : Lossy
Stream size : 555 MiB (7%)
Title : Original - BD 3D
Language : English
Default : No
Forced : No
Text #1
ID : 5
Format : UTF-8
Codec ID : S_TEXT/UTF8
Codec ID/Info : UTF-8 Plain Text
Title : Форсированные
Language : Russian
Default : Yes
Forced : No
Text #2
ID : 6
Format : UTF-8
Codec ID : S_TEXT/UTF8
Codec ID/Info : UTF-8 Plain Text
Title : Полные
Language : Russian
Default : No
Forced : No
Text #3
ID : 7
Format : UTF-8
Codec ID : S_TEXT/UTF8
Codec ID/Info : UTF-8 Plain Text
Title : Форсированные
Language : Ukrainian
Default : No
Forced : No
Text #4
ID : 8
Format : UTF-8
Codec ID : S_TEXT/UTF8
Codec ID/Info : UTF-8 Plain Text
Title : Полные
Language : Ukrainian
Default : No
Forced : No
Text #5
ID : 9
Format : UTF-8
Codec ID : S_TEXT/UTF8
Codec ID/Info : UTF-8 Plain Text
Title : Full
Language : English
Default : No
Forced : No
Text #6
ID : 10
Format : UTF-8
Codec ID : S_TEXT/UTF8
Codec ID/Info : UTF-8 Plain Text
Title : SDH
Language : English
Default : No
Forced : No
Menu
00:00:00.000 : :1
00:05:12.144 : :2 / :3
00:09:36.075 : :4
00:15:13.162 : :5
00:20:58.423 : :6
00:26:30.712 : :7
00:26:30.713 : :8
00:33:15.116 : :9
00:33:15.117 : :10
00:40:23.753 : :11
00:40:23.755 : :12
00:47:23.382 : :13
00:52:14.588 : :14
00:52:14.590 : :15
00:57:49.172 : :16
00:57:49.173 : :17
01:01:54.793 : :18 / :19
01:07:22.079 : :20
01:15:40.577 : :21
01:15:40.578 : :22
01:21:03.899 : :23
01:26:59.587 : :24
01:26:59.588 : :25
01:32:39.136 : :26
01:41:20.448 : :27 / :28
01:46:47.649 : :29
01:46:47.650 : :30
01:54:06.463 : :31
01:54:06.465 : :32
Благодарности релизеру (10)

Торрент:

Статус:

Размер:

Зарегистрирован   [ 2016-01-07 13:46 ]

* не проверено

8.18 GB