Торренты   
 
 

 

Захват горы тигра / The Taking of Tiger Mountain (Цуй Харк) [2014 г., Anamorph OverUnder]

Рейтинг 3D:
8 голосов
7.1
Рейтинг фильма:
8 голосов
6.5
 
Вы должны быть авторизированы,
чтобы ставить оценки


Захват горы тигра / The Taking of Tiger Mountain
Год выпуска: 2014
Страна: Китай, Гонконг
Жанр: боевик, мелодрама, комедия
Продолжительность: 02:23:11
Перевод: Любительский (одноголосый)
Режиссер: Цуй Харк
В ролях: Чжан Ханьюй, Кенни Лин, Лия Тун, Тони Люн Ка Фай, Хань Гэн, Миу Це, Нань Юй
Описание: История разворачивается в 1940-х годах и рассказывает о спецагенте, которому необходимо внедриться в банду особо опасных преступников.
Качество: BDRip
Формат 3D: Anamorph OverUnder
Видео: h.264 1920x1080 ~11.4 Mbps
Аудио:
1. Русский - AC3 / 5.1 Ch / 640 kbps (одноголосый закадровый, В.Сергеев)

Скриншоты

Media Info

Format : Matroska
Format version : Version 2
File size : 12.3 GiB
Duration : 2h 23mn
Overall bit rate mode : Variable
Overall bit rate : 12.3 Mbps
Movie name : BD_VOLUME.Title0
Encoded date : UTC 2016-02-06 10:58:47
Writing library : libebml v0.7.8 + libmatroska v0.8.1
Video
ID : 1
Format : AVC
Format/Info : Advanced Video Codec
Format profile : High@L4.0
Format settings, CABAC : Yes
Format settings, GOP : M=3, N=24
Codec ID : V_MPEG4/ISO/AVC
Duration : 2h 23mn
Bit rate mode : Variable
Bit rate : 11.4 Mbps
Width : 1 920 pixels
Height : 1 080 pixels
Display aspect ratio : 16:9
Frame rate mode : Constant
Frame rate : 23.976 fps
Color space : YUV
Chroma subsampling : 4:2:0
Bit depth : 8 bits
Scan type : Progressive
Bits/(Pixel*Frame) : 0.230
Stream size : 11.4 GiB (93%)
Default : Yes
Forced : No
Audio
ID : 2
Format : AC-3
Format/Info : Audio Coding 3
Mode extension : CM (complete main)
Format settings, Endianness : Big
Codec ID : A_AC3
Duration : 2h 23mn
Bit rate mode : Constant
Bit rate : 640 Kbps
Channel(s) : 6 channels
Channel positions : Front: L C R, Side: L R, LFE
Sampling rate : 48.0 KHz
Bit depth : 16 bits
Compression mode : Lossy
Stream size : 655 MiB (5%)
Language : Russian
Default : Yes
Forced : No
Благодарности релизеру (10)

Торрент:

Статус:

Размер:

Зарегистрирован   [ 2016-02-06 15:45 ]

* не проверено

12.32 GB

 
 Мнение о фильме (1)





Фильм понравился, смотрел с удовольстввием