Торренты   
 
 

 

Паранормальное явление 5: Призраки в 3D / 3Д / Paranormal Activity: The Ghost Dimension 3D (Грегори Плоткин / Gregory Plotkin) [2015, Ужасы, BDrip-AVC] Half OverUnder / Вертикальная анаморфная стереопара

Рейтинг 3D:
10 голосов
7.1
Рейтинг фильма:
10 голосов
5.9
 
Вы должны быть авторизированы,
чтобы ставить оценки


Паранормальное явление 5: Призраки в 3D / Paranormal Activity: The Ghost Dimension
Год выпуска: 2015
Страна: США
Жанр: Ужасы
Продолжительность: 01:29:16
Перевод: Профессиональный (полное дублирование)
Режиссер: Грегори Плоткин
В ролях: Крис Дж. Мюррэй, Бриттани Шоу, Айви Джордж, Дэн Гилл, Оливия Тейлор Дадли, Хлоя Ксенджери, Джесика Браун, Дон МакМанус, Майкл Кравич, Халли Фут
Описание: Молодые супруги Райан и Эмили, и их 6-летняя дочь Лейла переезжают в довольно симпатичный и тихий дом. В гараже они находят старую видеокамеру и коробку кассет. Но они даже не подозревали, что увидят, когда заглянут в объектив камеры…
Приготовьтесь к ужасающей развязке истории призрака, замучившего не одну семью!
Качество: BDRip (by Ash61)
Контейнер: MKV
Формат 3D: Half OverUnder / Вертикальная анаморфная стереопара
Порядок ракурсов: левый ракурс первый
Видео: AVC / 23,976 fps / 1920х1080p / 13.6 Mbps
Аудио:
#1 - Русский / AC3 / 48 KHz / 5.1 ch / 640 Kbps (Дубляж - BD CEE)
#2 - Украинский / AC3 / 48 KHz / 5.1 ch / 640 Kbps (Дубляж - BD CEE)
#3 - Английский / AC3 / 48 KHz / 5.1 ch / 640 Kbps (Original - BD 3D)
Субтитры (SRT):
Вшитые (softsub):
#1 - Русские Форсированные (включены по умолчанию)
#2 - Русские Полные
#3 - Украинские Форсированные (на добавленный эпизод)
#4 - Украинские Полные
#5 - English Full
#6 - English SDH
Внешние (UTF-8):
#1 - Русские Форсированные (включены по умолчанию)
#2 - Украинские Форсированные (на добавленный эпизод)

Скриншоты



Media Info

General
Unique ID : 209973711667478811185294652446696556534 (0x9DF777442351EFE48829C38FE3B047F6)
Complete name : ParanormalActivity5(2015)3D-halfOU(Ash61)+\ParanormalActivity5(2015)3D-halfOU(Ash61)+.mkv
Format : Matroska
Format version : Version 2
File size : 9.84 GiB
Duration : 1h 29mn
Overall bit rate : 15.8 Mbps
Movie name : Паранормальное явление 5: Призраки в 3D [+] / Paranormal Activity: The Ghost Dimension [+] (2015) в 3Д
Encoded date : UTC 2016-02-06 23:16:13
Writing application : mkvmerge v5.8.0 ('No Sleep / Pillow') built on Sep 2 2012 15:37:04
Writing library : libebml v1.2.3 + libmatroska v1.3.0
Video
ID : 1
Format : AVC
Format/Info : Advanced Video Codec
Format profile : High@L4.1
Format settings, CABAC : Yes
Format settings, ReFrames : 4 frames
Codec ID : V_MPEG4/ISO/AVC
Duration : 1h 29mn
Bit rate : 13.6 Mbps
Width : 1 920 pixels
Height : 1 080 pixels
Display aspect ratio : 16:9
Frame rate : 23.976 fps
Color space : YUV
Chroma subsampling : 4:2:0
Bit depth : 8 bits
Scan type : Progressive
Bits/(Pixel*Frame) : 0.273
Stream size : 8.45 GiB (86%)
Title : BDRip by Ash61 (+ добавленный эпизод)
Writing library : x264 core 146 r2538 121396c
Encoding settings : cabac=1 / ref=4 / deblock=1:-3:-3 / analyse=0x3:0x113 / me=umh / subme=10 / psy=1 / psy_rd=1.00:0.00 / mixed_ref=1 / me_range=32 / chroma_me=1 / trellis=2 / 8x8dct=1 / cqm=0 / deadzone=21,11 / fast_pskip=1 / chroma_qp_offset=-2 / threads=12 / lookahead_threads=3 / sliced_threads=0 / nr=0 / decimate=1 / interlaced=0 / bluray_compat=0 / constrained_intra=0 / bframes=10 / b_pyramid=2 / b_adapt=2 / b_bias=0 / direct=3 / weightb=1 / open_gop=0 / weightp=2 / keyint=250 / keyint_min=23 / scenecut=40 / intra_refresh=0 / rc_lookahead=60 / rc=crf / mbtree=1 / crf=16.5 / qcomp=0.70 / qpmin=0 / qpmax=69 / qpstep=4 / vbv_maxrate=40000 / vbv_bufsize=30000 / crf_max=0.0 / nal_hrd=none / filler=0 / frame-packing=4 / ip_ratio=1.40 / aq=1:0.70
Language : English
Default : Yes
Forced : No
Audio #1
ID : 2
Format : AC-3
Format/Info : Audio Coding 3
Mode extension : CM (complete main)
Codec ID : A_AC3
Duration : 1h 29mn
Bit rate mode : Constant
Bit rate : 640 Kbps
Channel(s) : 6 channels
Channel positions : Front: L C R, Side: L R, LFE
Sampling rate : 48.0 KHz
Bit depth : 16 bits
Compression mode : Lossy
Stream size : 409 MiB (4%)
Title : Дубляж - BD CEE (добавленный эпизод - двухголосый закадровый)
Language : Russian
Default : Yes
Forced : No
Audio #2
ID : 3
Format : AC-3
Format/Info : Audio Coding 3
Mode extension : CM (complete main)
Codec ID : A_AC3
Duration : 1h 29mn
Bit rate mode : Constant
Bit rate : 640 Kbps
Channel(s) : 6 channels
Channel positions : Front: L C R, Side: L R, LFE
Sampling rate : 48.0 KHz
Bit depth : 16 bits
Compression mode : Lossy
Stream size : 409 MiB (4%)
Title : Дубляж - BD CEE (добавленный эпизод - русский двухголосый закадровый)
Language : Ukrainian
Default : No
Forced : No
Audio #3
ID : 4
Format : AC-3
Format/Info : Audio Coding 3
Mode extension : CM (complete main)
Codec ID : A_AC3
Duration : 1h 29mn
Bit rate mode : Constant
Bit rate : 640 Kbps
Channel(s) : 6 channels
Channel positions : Front: L C R, Side: L R, LFE
Sampling rate : 48.0 KHz
Bit depth : 16 bits
Compression mode : Lossy
Stream size : 409 MiB (4%)
Title : Original - BD 3D
Language : English
Default : No
Forced : No
Text #1
ID : 5
Format : UTF-8
Codec ID : S_TEXT/UTF8
Codec ID/Info : UTF-8 Plain Text
Title : Форсированные
Language : Russian
Default : Yes
Forced : No
Text #2
ID : 6
Format : UTF-8
Codec ID : S_TEXT/UTF8
Codec ID/Info : UTF-8 Plain Text
Title : Полные
Language : Russian
Default : No
Forced : No
Text #3
ID : 7
Format : UTF-8
Codec ID : S_TEXT/UTF8
Codec ID/Info : UTF-8 Plain Text
Title : Форсированные (на добавленную сцену)
Language : Ukrainian
Default : No
Forced : No
Text #4
ID : 8
Format : UTF-8
Codec ID : S_TEXT/UTF8
Codec ID/Info : UTF-8 Plain Text
Title : Полные
Language : Ukrainian
Default : No
Forced : No
Text #5
ID : 9
Format : UTF-8
Codec ID : S_TEXT/UTF8
Codec ID/Info : UTF-8 Plain Text
Title : Full
Language : English
Default : No
Forced : No
Text #6
ID : 10
Format : UTF-8
Codec ID : S_TEXT/UTF8
Codec ID/Info : UTF-8 Plain Text
Title : SDH
Language : English
Default : No
Forced : No
Menu
00:00:00.000 : :1
00:01:56.074 : :2
00:09:23.313 : :3
00:17:33.177 : :4
00:24:11.492 : :5
00:29:08.288 : :6
00:36:40.990 : :7
00:42:59.452 : :8
00:49:04.441 : :9
00:56:20.669 : :10
01:05:35.255 : :11
01:12:36.968 : :12
01:23:50.766 : :13
Благодарности релизеру (15)

Торрент:

Статус:

Размер:

Зарегистрирован   [ 2016-02-07 09:21 ]

* не проверено

9.84 GB

 
 Мнение о фильме (7)





тут сцен в 3Д - кот наплакал...
 

Amstaff,
А откуда им тут взяться? Самая лучшая среда для 3d это картинка повышенной сочности и контрастности...Жанр ужасы всегда снимают тёмными, ночными ...
Но...Человек 60 качают...
 

Спасибо Ash61 за предоставленный материал...и, за добавленный эпизод
 

фильм охрененен!!!!3д в нужных местах,как снимает,найденная камера!!!!просто супер!!!!
 
ВЛАДИМИРЫЧ Профиль 07-Фев-2016 22:38

Спасибо!!!
 

Пжлуста
 

Всем привет! я не знаю кто такой Ash61! но он реально крутизна и уважуха! все для нас! Короче будешь в Крыму! я тебя... не мы с тобой будем бухать и есть шашлык!!! только угощаю Я!!!