Торренты   
 
 


Вакен 3Д / Wacken 3D (Норберт Хайткер / Norbert Heitker) [2014, Документальный, Музыка, Heavy Metal, Hard Rock, BDrip-AVC] Half OverUnder / Вертикальная анаморфная стереопара

Рейтинг 3D:
Пока никто не голосовал
Рейтинг фильма:
Пока никто не голосовал
 
Вы должны быть авторизированы,
чтобы ставить оценки


Вакен / Wacken
Год выпуска: 2014
Страна: Германия
Жанр: Документальный, Музыка, Heavy Metal, Hard Rock
Продолжительность: 01:35:59
Перевод: Отсутствует
Режиссер: Норберт Хайткер
В фильме показаны: Deep Purple, Anthrax, Motörhead, Alice Cooper, Rammstein, Henry Rollins, Annihilator, Trivium, Sabaton, Doro Pesch & Biff Byford, Anvil, Alpha Tiger, Ragnarok, Lamb of God, Blaas of Glory, Dr. Living Dead, Dunderbeist, Kamikaze Kings, Eskimo Callboy and Wacken Co-Founders, Thomas Jensen and Holger Hübner...
Описание: Документальный фильм о фестивале Wacken-2013 - кинорежиссер Норберт Хайткер используя шесть обычных и 18 стереоскопических 3D камер, окунёт вас в удивительное путешествие по увлекательному миру Wacken Open Air.
Фестиваль прошёл с 1 по 3 августа 2013 г.
Доп. информация: Wacken Open Air (W:O:A) — крупнейший в мире фестиваль тяжелой музыки, проводимый ежегодно в предместьях городка Вакен, на севере Германии. WOA, или чаще просто "Wacken" является крупнейшим и неофициально считается главным металл-событием в Мире. В 2006 году количество посетителей этого мероприятия превысило 60 тысяч. В настоящее время Вакен принимает более 200 тысяч посетителей ежегодно.
Впервые фестиваль был проведён в 1990 году, при участии местных малоизвестных групп, но с каждым годом популярность росла и к 1998 году Wacken стал фестивалем европейского, а затем и мирового уровня.
Современный Wacken Open Air проводится в первые выходные августа каждого года и официально длится три дня (по факту - четыре). Устанавливается семь (иногда восемь) сцен, на которых выступают свыше 80 музыкальных коллективов со всего мира.
Во время подготовки W:O:A 2012 был установлен рекорд: все 75 тысяч билетов на фестиваль были распроданы 29 ноября 2011 года, за 247 дней до его открытия . Который был побит во время подготовки W:O:A 2013 21 сентября 2012 года. В 2013-м все билеты разобрали за двое суток, а в 2014 SOLD OUT произошёл уже через 12 часов после поступления билетов в продажу.

Качество: BDRip (by Ash61)
Контейнер: MKV
Формат 3D: Half OverUnder / Вертикальная анаморфная стереопара
Порядок ракурсов: левый ракурс первый
Видео: AVC / 23,976 fps / 1920х1080p / 14.2 Mbps
Аудио:
#1 - Английский / AC3 / 48 KHz / 5.1 ch / 640 Kbps (BD 3D)
#2 - Немецкий / AC3 / 48 KHz / 2 ch / 320 Kbps (Original - BD 3D) (Отдельным файлом)
Субтитры: Внешние SRT UTF-8 Немецкие SDH

Скриншоты



Media Info

General
Unique ID : 237027379968605617050185038851418090701 (0xB251D018631E6F98A82B2E649E93ECCD)
Complete name : Wacken(2014)3D-halfOU(Ash61)Eng\Wacken(2014)3D-halfOU(Ash61)Eng.mkv
Format : Matroska
Format version : Version 2
File size : 10.2 GiB
Duration : 1h 35mn
Overall bit rate : 15.2 Mbps
Movie name : Вакен 3Д / Wacken 3D (2014) 3D
Encoded date : UTC 2015-03-20 14:38:55
Writing application : mkvmerge v5.8.0 ('No Sleep / Pillow') built on Sep 2 2012 15:37:04
Writing library : libebml v1.2.3 + libmatroska v1.3.0
Video
ID : 1
Format : AVC
Format/Info : Advanced Video Codec
Format profile : High@L4.1
Format settings, CABAC : Yes
Format settings, ReFrames : 4 frames
Codec ID : V_MPEG4/ISO/AVC
Duration : 1h 35mn
Bit rate : 14.2 Mbps
Width : 1 920 pixels
Height : 1 080 pixels
Display aspect ratio : 16:9
Frame rate : 23.976 fps
Color space : YUV
Chroma subsampling : 4:2:0
Bit depth : 8 bits
Scan type : Progressive
Bits/(Pixel*Frame) : 0.287
Stream size : 9.55 GiB (94%)
Title : BDRip by Ash61
Writing library : x264 core 138 r2358 9e941d1
Encoding settings : cabac=1 / ref=4 / deblock=1:-3:-3 / analyse=0x3:0x113 / me=umh / subme=10 / psy=1 / psy_rd=1.00:0.00 / mixed_ref=1 / me_range=32 / chroma_me=1 / trellis=2 / 8x8dct=1 / cqm=0 / deadzone=21,11 / fast_pskip=1 / chroma_qp_offset=-2 / threads=12 / lookahead_threads=3 / sliced_threads=0 / nr=0 / decimate=1 / interlaced=0 / bluray_compat=0 / constrained_intra=0 / bframes=10 / b_pyramid=2 / b_adapt=2 / b_bias=0 / direct=3 / weightb=1 / open_gop=0 / weightp=2 / keyint=250 / keyint_min=23 / scenecut=40 / intra_refresh=0 / rc_lookahead=60 / rc=crf / mbtree=1 / crf=16.5 / qcomp=0.70 / qpmin=0 / qpmax=69 / qpstep=4 / vbv_maxrate=40000 / vbv_bufsize=30000 / crf_max=0.0 / nal_hrd=none / frame-packing=4 / ip_ratio=1.40 / aq=1:0.70
Language : English
Default : Yes
Forced : No
Audio
ID : 2
Format : AC-3
Format/Info : Audio Coding 3
Mode extension : CM (complete main)
Codec ID : A_AC3
Duration : 1h 35mn
Bit rate mode : Constant
Bit rate : 640 Kbps
Channel(s) : 6 channels
Channel positions : Front: L C R, Side: L R, LFE
Sampling rate : 48.0 KHz
Bit depth : 16 bits
Compression mode : Lossy
Stream size : 439 MiB (4%)
Title : BD 3D
Language : English
Default : Yes
Forced : No
Menu
00:00:00.000 : :1
00:10:17.575 : :2
00:21:52.895 : :3
00:31:43.151 : :4
00:43:44.121 : :5
00:51:24.540 : :6
01:00:29.125 : :7
01:11:49.722 : :8
01:24:14.841 : :9
01:30:02.105 : :10
Благодарности релизеру (4)

Торрент:

Статус:

Размер:

Зарегистрирован   [ 2016-02-29 14:35 ]

* не проверено

10.4 GB