Торренты   
 
 

 

Снупи и мелочь пузатая в кино в 3Д / The Peanuts Movie 3D (Стив Мартино / Steve Martino) [2015, Мультфильм, Комедия, Приключения, Семейный, BDrip, 1080p]Full OverUnder / Вертикальная стереопара

Рейтинг 3D:
3 голосов
7.3
Рейтинг фильма:
3 голосов
6.0
 
Вы должны быть авторизированы,
чтобы ставить оценки


Снупи и мелочь пузатая в кино / The Peanuts Movie
Год выпуска: 2015
Страна: США (20th Century Fox, Blue Sky Studios)
Жанр: Мультфильм, Комедия, Приключения, Семейный
Продолжительность: 01:28:07
Перевод: Профессиональный дублированный(iTunes)
Русские субтитры: нет
Режиссер: Стив Мартино / Steve Martino
В ролях: Тромбоун Шорти, Ребекка Блум, Анастасия Бредихина, Франческа Капальди, Кристин Ченоуэт, Александр Гарфин, Ной Джонстон, Билл Мелендес, Хэдли Белль Миллер
Описание: Чарли Браун, Снупи, Люси, Линус и другие полюбившиеся персонажи комиксов «Мелочь пузатая» впервые появятся на большом экране в полнометражном анимационном фильме, снятом с использованием последних достижений 3D-анимации. Снупи — самый симпатичный пес в мире — к тому же, классный пилот — отправляется в невероятные воздушные приключения в погоне за главным злодеем Красным Бароном. В это время у его приятеля Чарли Брауна начинаются поистине эпические приключения!
Сэмпл: http://sendfile.su/1210065
Качество: BDrip
Контейнер: MKV
Формат 3D: OverUnder / Вертикальная стереопара
Порядок ракурсов: левый ракурс первый
Видео кодек: x264
Аудио кодек: AC3
Видео: AVC / High@L5.0 / 23,976 fps / 1920х2080 /7839 Кбит/сек
Аудио: Русский / AC3 / 48 KHz / 5.1 ch / 384 Кбит/сек(iTunes)
Аудио 2: Английский / AC3 / 48 KHz / 5.1 ch / 640 Кбит/сек
Релиз группы: ВНИМАНИЕ ! На встроенных ТВ-плеерах работать не будет!!!
ТВ Samsung в названии которого есть надпись Ultra HD , и LG Ultra HD 800 серии, Xiaomi Mi TV 2 воспроизводят полные стереопары встроенными плеерами
Железные плееры на которых воспроизводятся полные стереопары:Popcorn C-200 , Dune HD Smart D1 , Dune HD DUO , Dune HD Smart H1 , Dune HD Smart B1 , Dune HD Max , Dune HD TV-303D , Dune HD Base 3D, Philips HMP7001, Aura HD

MediaInfo

Общее
Уникальный идентификатор : 184001987362556430299350573288629755469 (0x8A6D7E65033DE298B0FC21A55F105E4D)
Полное имя : E:\закачки\The Peanuts Movie.Rip by SeRoGa00.mkv
Формат : Matroska
Версия формата : Version 2
Размер файла : 5,57 Гбайт
Продолжительность : 1 ч. 28 м.
Общий поток : 9043 Кбит/сек
Дата кодирования : UTC 2016-03-03 07:36:32
Программа кодирования : mkvmerge v3.4.0 ('Rapunzel') сборка от May 15 2010 09:38:20
Библиотека кодирования : libebml v0.8.0 + libmatroska v0.9.0
Видео
Идентификатор : 1
Формат : AVC
Формат/Информация : Advanced Video Codec
Профиль формата : High@L5.0
Параметр CABAC формата : Да
Параметр ReFrames формата : 4 кадра
Идентификатор кодека : V_MPEG4/ISO/AVC
Продолжительность : 1 ч. 28 м.
Битрейт : 7839 Кбит/сек
Ширина : 1920 пикселей
Высота : 2080 пикселей
Соотношение сторон : 0,923
Частота кадров : 23,976 кадра/сек
Цветовое пространство : YUV
Субдискретизация насыщенности : 4:2:0
Битовая глубина : 8 бит
Тип развёртки : Прогрессивная
Бит/(Пиксели*Кадры) : 0.082
Размер потока : 4,82 Гбайт (87%)
Заголовок : Rip by SeRoGa00
Библиотека кодирования : x264 core 148 r2638 7599210
Настройки программы : cabac=1 / ref=4 / deblock=1:-3:-3 / analyse=0x3:0x113 / me=umh / subme=10 / psy=1 / psy_rd=1.00:0.15 / mixed_ref=1 / me_range=24 / chroma_me=1 / trellis=2 / 8x8dct=1 / cqm=0 / deadzone=21,11 / fast_pskip=1 / chroma_qp_offset=-3 / threads=9 / lookahead_threads=2 / sliced_threads=0 / nr=0 / decimate=1 / interlaced=0 / bluray_compat=0 / constrained_intra=0 / bframes=10 / b_pyramid=2 / b_adapt=2 / b_bias=0 / direct=3 / weightb=1 / open_gop=0 / weightp=2 / keyint=250 / keyint_min=23 / scenecut=40 / intra_refresh=0 / rc_lookahead=60 / rc=crf / mbtree=1 / crf=18.0 / qcomp=0.60 / qpmin=10 / qpmax=69 / qpstep=4 / vbv_maxrate=40000 / vbv_bufsize=50000 / crf_max=0.0 / nal_hrd=none / filler=0 / ip_ratio=1.40 / aq=1:1.00
Язык : English
Default : Нет
Forced : Нет
Аудио #1
Идентификатор : 2
Формат : AC-3
Формат/Информация : Audio Coding 3
Расширение режима : CM (complete main)
Параметр Endianness формата : Big
Идентификатор кодека : A_AC3
Продолжительность : 1 ч. 28 м.
Вид битрейта : Постоянный
Битрейт : 384 Кбит/сек
Каналы : 6 каналов
Расположение каналов : Front: L C R, Side: L R, LFE
Частота : 48,0 КГц
Битовая глубина : 16 бит
Метод сжатия : С потерями
Размер потока : 242 Мбайт (4%)
Язык : Russian
Default : Да
Forced : Нет
Аудио #2
Идентификатор : 3
Формат : AC-3
Формат/Информация : Audio Coding 3
Расширение режима : CM (complete main)
Параметр Endianness формата : Big
Идентификатор кодека : A_AC3
Продолжительность : 1 ч. 28 м.
Вид битрейта : Постоянный
Битрейт : 640 Кбит/сек
Каналы : 6 каналов
Расположение каналов : Front: L C R, Side: L R, LFE
Частота : 48,0 КГц
Битовая глубина : 16 бит
Метод сжатия : С потерями
Размер потока : 403 Мбайт (7%)
Язык : English
Default : Нет
Forced : Нет

Скриншоты


Благодарности релизеру (4)

Торрент:

Статус:

Размер:

Зарегистрирован   [ 2016-03-03 20:04 ]

* не проверено

5.57 GB

 
 Мнение о фильме (4)





не понравился, ожидал нечто большего чем кино для 3+
 

скучный мульт, не советую
 

Жаль,хороший был торрент пока можно было скачать 1920х1080 , буду искать другой.
 

Letter, мужик! Ты сначала разберись в теме а потом делай выводы. Я здесь выложил "для телека". Пользуйся поиском!