Торренты   
 
 


The Lovers Guide - Igniting Desire: How to Have the Best ! of Your Life [2010 г., 720p]


У всех прошу прощения, версия всё-таки 2Д

Год выпуска: 2010
Страна: Великобритания
Жанр: Документальное, обучающее видео (18+)
Продолжительность: 1 час 5 минут
Перевод: Отсутствует
Субтитры: На английском
Описание: Twenty years after the original The Lovers’ Guide exploded into the lives of the UK public, the ground-breaking guide is back with another no-holds-barred exploration of the pleasures of love-making. To mark the anniversary of the series that has brought ! ! advice firmly into the mainstream, the latest instalment has been created using cutting edge 3D technology as the next stop in the sexual revolution. Here the audience is engaged with a never-before-seen sense of intimacy and massively richer viewpoint. Now bigger, better and bolder than ever before, The Lovers’ Guide 3D - Igniting Desire features the voices of Gemma Bissix (Eastenders, Hollyoaks, Dancing on Ice) and Jeremy Edwards (Hollyoaks, Holby City) and will take audiences to an altogether new level of love-making enlightenment. The Lovers’ Guide 3D has been created by the original producers of The Lovers’ Guide series–Robert Page and William Campbell–and filmed by the award-winning director Kenny Rye. Although a 2D version is included, please note that a 3D television is required in order to view The Lover’s Guide 3D Blu-ray in stereoscopic 3D.
Видео: AVC 1280x720 7874Kbps 23.976fps
Аудио: DTS 1510Kbps 6Ch 48KHz

Скриншоты







Media Info

Format : Matroska
File size : 4.32 GiB
Duration : 1h 5mn
Overall bit rate : 9 380 Kbps
Movie name : The Lovers Guide - Igniting Desire How to Have the Best ! of Your Life [20th Anniversary Edition] 1991 Blu-ray 3D 720p AVC DTS 5 1 AtZLIT
Encoded date : UTC 2011-02-12 08:04:41
Writing application : mkvmerge v4.4.0 ('Die Wiederkehr') built on Oct 31 2010 21:52:48
Writing library : libebml v1.0.0 + libmatroska v1.0.0
Video
ID : 1
Format : AVC
Format/Info : Advanced Video Codec
Format profile : High@L4.1
Format settings, CABAC : Yes
Format settings, ReFrames : 3 frames
Muxing mode : Container profile=Unknown@4.1
Codec ID : V_MPEG4/ISO/AVC
Duration : 1h 5mn
Bit rate mode : Variable
Bit rate : 7 874 Kbps
Maximum bit rate : 25.0 Mbps
Width : 1 280 pixels
Height : 720 pixels
Display aspect ratio : 16:9
Frame rate : 23.976 fps
Color space : YUV
Chroma subsampling : 4:2:0
Bit depth : 8 bits
Scan type : Progressive
Bits/(Pixel*Frame) : 0.356
Stream size : 3.54 GiB (82%)
Writing library : x264 core 112 r1867 22bfd31
Encoding settings : cabac=1 / ref=3 / deblock=1:0:0 / analyse=0x3:0x133 / me=umh / subme=7 / psy=1 / psy_rd=1.00:0.00 / mixed_ref=1 / me_range=16 / chroma_me=1 / trellis=1 / 8x8dct=1 / cqm=0 / deadzone=21,11 / fast_pskip=1 / chroma_qp_offset=-2 / threads=6 / sliced_threads=0 / nr=0 / decimate=1 / interlaced=0 / constrained_intra=0 / bframes=3 / b_pyramid=0 / b_adapt=1 / b_bias=0 / direct=1 / weightb=1 / open_gop=0 / weightp=2 / keyint=240 / keyint_min=24 / scenecut=40 / intra_refresh=0 / rc_lookahead=40 / rc=2pass / mbtree=1 / bitrate=7874 / ratetol=1.0 / qcomp=0.60 / qpmin=0 / qpmax=51 / qpstep=4 / cplxblur=20.0 / qblur=0.5 / vbv_maxrate=25000 / vbv_bufsize=25000 / nal_hrd=vbr / ip_ratio=1.40 / aq=1:1.00
Audio
ID : 2
Format : DTS
Format/Info : Digital Theater Systems
Codec ID : A_DTS
Duration : 1h 5mn
Bit rate mode : Constant
Bit rate : 1 510 Kbps
Channel(s) : 6 channels
Channel positions : Front: L C R, Side: L R, LFE
Sampling rate : 48.0 KHz
Bit depth : 16 bits
Stream size : 713 MiB (16%)
Language : English
Text
ID : 3
Format : VobSub
Codec ID : S_VOBSUB
Codec ID/Info : The same subtitle format used on DVDs
Language : English
Комментарии:

1, 2  След.






Канал 8 мегабит, так что не обессудьте.
 

Почему нет Пункт Назначения 4 для затворных очков??? Кто может помочь???
 

Приходится жертвовать качеством, ради того, что-бы влезла на DVD-5. Спасибо за свежачооок!!
 

а перевод случайно не обещают?
 

Кто может обяснить - я смотрю 3D на Samsung 55C8000 внутренним проигрывателем,будет ли разница и на сколько при просмотре на blu-ray проигрывателе качество 3D эффекта?
 

voodoo420
Нае...во!!! В каком месте там 3D?!
Не ломайте страницу десятками одинаковых символов??? и !!!. Zagruzin
 

Никакого Наеба нет,что ты имееш в виду?
 

Формат скачанного торрента обыкновенное видео, 3D в данном случае нет никаого.
 

Я же смотрю 3D через HDD по внутреннему проигрывателю как нету,только есть сомнения что не лучшего качества. При включении фильма показывает 2-а изображения включаеш на телике 3D становится один.Честно говоря я не спец в этих делах поэтому спрашиваю кто что знает
 

Гарик
Гарик, ты знач ошибся торрентом. Дело в том, что на этом сайте исключительно стереоскопические фильмы, т.е. 3D, а не порносайт. Поэтому, закономерный вопрос к автору раздачи: почему и зачем??? Откуда Гарик два изображения увидел, может я чего не понимаю???? У меня только на скриншотах!!
 

Я вообще не скачиваю !, анаморфные фильмы хорошо показывают на моём Samsung 55c8000.Мой вопрос заключался
в качестве и правильности скачиваемых мной форматов - ANAMORF файлов или есть другие более качественные????
 

А тут пары неттт!
 

Эм.. Может я с форматом 3Д ошибся? А то в местном ФАКе(FAQ: Как узнать форматы 3Д?) описаны только сами форматы, а как определить нет. Вобщем написал, как заработало у меня. Смотрю полноценное 3Д на монике с 3Д вижн, причём картинку совсем недурного качества.
У тех, кто испытал некоторый дискомфорт, прошу прощения.
 

Скачавших и посмотревших, прошу написать в чём просчёт.
 

Чего-то здесь не то. По скринам просто 2Д версия со сдвигом по времени "второго ракурса" на один кадр. "Параллакс" только на предметах движения, статика совпадает полностью пиксель в пиксель.
Если делали рип с 3Д, то по ошибке второй ракурс потерялся и рип вышел из одного и того же ракурса с разницей в кадр-два.
 

зато как красиво качался... 1,4 Мб./с!!!!
 

Скачавших и посмотревших именно 3Д, прошу отписаться.
 

Скачавших и посмотревших именно 3Д, прошу отписаться.
Вот скажите где вы там 3D увидели и главное чем? При открытии файла я видел стандартное 2D изображение, небыло и в помине никакой Over\Under стереопары как на скриншотах. До включения режима 3D любой плеер должен показывать ролик именно в такой картине как у вас на скринах, один экран, разделённый на два изображения один над другим выводимых одновременно. Я прокрутил выборочно весь скачанный файл, ни в одном месте такого изобрадажения я не заметил. Дальнейшие эксперименты невозможны по причине удаления скачанного.
 

Zagruzin
Чем я сломал страницу? Несколько восклицательных или вопросительных знаков ничего не ломают, а подчёркивают недоумение... к тому-же справедливое!.. И вообще, три восклицательных или вопросительных знака - приём в литературе - не запрещённый, а, как я уже сказал, усиливающий восклицание или вопрос. Я вообще-то никогда не злоупотребляю знаками и выражениями!
 

LRaven
Смотрел стандартным плеером 3Д Вижн(по-моему это стереоскопик плеер). Всё было 3Д, как надо. И был крайне удивлён, что вы не нашли в видео пару. Без очков, "размытое" стерео изображение видно в динамических объектах(каких именно писать не буду =) ), статика без очков смотрится как обычное 2Д. И по-моему так и должно быть. Мб с форматом что-то не так, что не посмотреть на 3Д телеках.
Кстати, торрент был скачан 40 раз, странно, что отписалось о том, что что-то не так, всего пара человек.
 

Страница 1 из 2

1, 2  След.