Торренты   
 
 

 

На гребне волны [2015 г., Anamorph OverUnder]

Рейтинг 3D:
14 голосов
7.6
Рейтинг фильма:
15 голосов
5.0
 
Вы должны быть авторизированы,
чтобы ставить оценки


На гребне волны / Point Break
Год выпуска: 2015
Страна: США, Германия, Китай
Жанр: боевик, триллер, криминал
Продолжительность: 1:53:50
Перевод: Профессиональный (полное дублирование)
Режиссер: Эриксон Кор
В ролях: Люк Брейси, Эдгар Рамирес, Рэй Уинстон, Тереза Палмер, Матиас Варела, Клеменс Шик, Тобиас Зантельман, Макс Тириот, Делрой Линдо, Николай Кински
Описание: Джонни — молодой агент ФБР, специализирующийся на работе под прикрытием. Он не раз выходил из самых сложных ситуаций, всегда доделывая свою работу до конца. Его очередным заданием становится проникновение в банду воров. Однако эти люди не обычные грабители: их главным отличием от остальных является увлечение экстремальными видами спорта. Свои умения они используют при каждом новом ограблении, и стать частью их команды очень непросто. Чтобы войти в банду и остановить преступников, Джонни придется доказать, что он такой же как они, а для этого ему не раз предстоит рискнуть собственной жизнью...
Качество: BDRip
Формат 3D: Anamorph OverUnder
Видео: h.264 1920x1080 ~11.2 Mbps
Аудио:
1. Русский - AC3 / 5.1 Ch / 640 kbps (дубляж)
3. Английский - AC3 / 5.1 Ch / 640 kbps
Субтитры:
1. Русские - форсированные
2. Русские - полные
3. Английские - полные
19.02 Раздача обновлена: субтитры заменены на текстовые. Прошу всех, у кого были проблемы с воспроизведением предыдущего файла на встроенных плеерах, отписаться - как воспроизводится обновленный файл

Скриншоты

Media Info

Format : Matroska
Format version : Version 4 / Version 2
File size : 10.1 GiB
Duration : 1h 53mn
Overall bit rate mode : Variable
Overall bit rate : 12.7 Mbps
Movie name : POINT_BREAK.Title98
Encoded date : UTC 2016-03-19 07:30:41
Writing application : mkvmerge v8.2.0 ('World of Adventure') 64bit
Writing library : libebml v1.3.1 + libmatroska v1.4.2
Video
ID : 1
Format : AVC
Format/Info : Advanced Video Codec
Format profile : High@L4.0
Format settings, CABAC : Yes
Format settings, GOP : M=3, N=24
Codec ID : V_MPEG4/ISO/AVC
Duration : 1h 53mn
Bit rate mode : Variable
Bit rate : 11.2 Mbps
Maximum bit rate : 20.9 Mbps
Width : 1 920 pixels
Height : 1 080 pixels
Display aspect ratio : 16:9
Frame rate mode : Constant
Frame rate : 23.976 fps
Color space : YUV
Chroma subsampling : 4:2:0
Bit depth : 8 bits
Scan type : Progressive
Bits/(Pixel*Frame) : 0.224
Stream size : 8.88 GiB (88%)
Default : Yes
Forced : No
Color primaries : BT.709
Transfer characteristics : BT.709
Matrix coefficients : BT.709
Audio #1
ID : 2
Format : AC-3
Format/Info : Audio Coding 3
Mode extension : CM (complete main)
Format settings, Endianness : Big
Codec ID : A_AC3
Duration : 1h 53mn
Bit rate mode : Constant
Bit rate : 640 Kbps
Channel(s) : 6 channels
Channel positions : Front: L C R, Side: L R, LFE
Sampling rate : 48.0 KHz
Bit depth : 16 bits
Compression mode : Lossy
Stream size : 521 MiB (5%)
Language : Russian
Default : Yes
Forced : No
Audio #2
ID : 3
Format : AC-3
Format/Info : Audio Coding 3
Mode extension : CM (complete main)
Format settings, Endianness : Big
Codec ID : A_AC3
Duration : 1h 53mn
Bit rate mode : Constant
Bit rate : 640 Kbps
Channel(s) : 6 channels
Channel positions : Front: L C R, Side: L R, LFE
Sampling rate : 48.0 KHz
Bit depth : 16 bits
Compression mode : Lossy
Stream size : 521 MiB (5%)
Language : English
Default : No
Forced : No
Text #1
ID : 4
Format : UTF-8
Codec ID : S_TEXT/UTF8
Codec ID/Info : UTF-8 Plain Text
Title : Forced
Language : Russian
Default : Yes
Forced : No
Text #2
ID : 5
Format : UTF-8
Codec ID : S_TEXT/UTF8
Codec ID/Info : UTF-8 Plain Text
Title : Full
Language : Russian
Default : No
Forced : No
Text #3
ID : 6
Format : UTF-8
Codec ID : S_TEXT/UTF8
Codec ID/Info : UTF-8 Plain Text
Title : Full
Language : English
Default : No
Forced : No
Благодарности релизеру (26)

Торрент:

Статус:

Размер:

Зарегистрирован   [ 2016-03-19 11:38 ]

* не проверено

10.09 GB