Торренты   
 
 

 

О птичках / For the Birds (Ральф Эгглстон) [2000 г., Anamorph OverUnder]

Рейтинг 3D:
4 голосов
7.5
Рейтинг фильма:
4 голосов
7.6
 
Вы должны быть авторизированы,
чтобы ставить оценки


О птичках / For the Birds
Год выпуска: 2000
Страна: США
Жанр: мультфильм, короткометражка, комедия
Продолжительность: 0:03:35
Перевод: Не требуется
Режиссер: Ральф Эгглстон
Описание: Позитивный красочный мульт, про птичек на проводе. Мелкие воробьи vs Большая птица. Но хорошо смеется тот, кто смеется последний.
В 2002 году aнимационный ролик получил награду «Оскар» в номинации «Лучший короткометражный анимационный фильм».

Качество: BDRip
Формат 3D: Anamorph OverUnder
Видео: h.264 1920x1080 ~10.2 Mbps
Аудио:
1. Английский - AC3 / 5.1 Ch / 512 kbps

Скриншоты

Media Info

ForTheBirds.mkv
Format : Matroska
Format version : Version 2
File size : 281 MiB
Duration : 3mn 35s
Overall bit rate : 10.9 Mbps
Movie name : FOR_THE_BIRDS.Title0
Encoded date : UTC 2016-03-26 17:20:03
Writing library : libebml v0.7.8 + libmatroska v0.8.1
Video
ID : 1
Format : AVC
Format/Info : Advanced Video Codec
Format profile : High@L4.1
Format settings, CABAC : Yes
Format settings, ReFrames : 4 frames
Codec ID : V_MPEG4/ISO/AVC
Duration : 3mn 35s
Bit rate : 10.2 Mbps
Width : 1 920 pixels
Height : 1 080 pixels
Display aspect ratio : 16:9
Frame rate mode : Constant
Frame rate : 23.976 fps
Color space : YUV
Chroma subsampling : 4:2:0
Bit depth : 8 bits
Scan type : Progressive
Bits/(Pixel*Frame) : 0.205
Stream size : 262 MiB (93%)
Writing library : x264 core 142
Encoding settings : cabac=1 / ref=4 / deblock=1:-3:-3 / analyse=0x3:0x133 / me=umh / subme=9 / psy=1 / psy_rd=1.00:0.20 / mixed_ref=1 / me_range=16 / chroma_me=1 / trellis=2 / 8x8dct=1 / cqm=0 / deadzone=21,11 / fast_pskip=1 / chroma_qp_offset=-3 / threads=4 / lookahead_threads=1 / sliced_threads=0 / nr=0 / decimate=1 / interlaced=0 / bluray_compat=0 / constrained_intra=0 / bframes=6 / b_pyramid=0 / b_adapt=2 / b_bias=0 / direct=2 / weightb=1 / open_gop=0 / weightp=2 / keyint=24 / keyint_min=13 / scenecut=40 / intra_refresh=0 / rc=crf / mbtree=0 / crf=19.0 / qcomp=0.60 / qpmin=0 / qpmax=69 / qpstep=4 / ip_ratio=1.40 / pb_ratio=1.30 / aq=1:1.00
Default : Yes
Forced : No
Color primaries : BT.709
Transfer characteristics : BT.709
Matrix coefficients : BT.709
Audio
ID : 2
Format : AC-3
Format/Info : Audio Coding 3
Mode extension : CM (complete main)
Format settings, Endianness : Big
Codec ID : A_AC3
Duration : 3mn 35s
Bit rate mode : Constant
Bit rate : 512 Kbps
Channel(s) : 6 channels
Channel positions : Front: L C R, Side: L R, LFE
Sampling rate : 48.0 KHz
Bit depth : 16 bits
Compression mode : Lossy
Stream size : 13.2 MiB (5%)
Language : English
Default : Yes
Forced : No
Благодарности релизеру (21)

Торрент:

Статус:

Размер:

Зарегистрирован   [ 2016-03-26 21:40 ]

* не проверено

281 MB

 
 Мнение о фильме (4)





Классный мульт! Ждём продолжения... S.V.O. представил несколько короткометражек
Amstaff - ОГРОМНАЯ Благодарность за работу!!!
 

Огромное спасибо!
В 2000-м смотрел это в mp4 как промо от PIXAR. Одна из самых лучших их короткометражек за всё время!
Интересно, откуда в 3D? Конвертация или remake?
 

Качество не для детей. Своим я такое не покажу.
 

nefedot, а какое качество - для детей? Напишите конкретику - я имею ввиду параметры.