Торренты   
 
 


Пиковая дама: Черный обряд trailer 3D [2015 г., Anamorph SideBySide]

Рейтинг 3D:
Пока никто не голосовал
Рейтинг фильма:
Пока никто не голосовал
 
Вы должны быть авторизированы,
чтобы ставить оценки


Пиковая дама: Черный обряд trailer 3D
Год выпуска: 2015
Страна: Россия
Жанр: Ужасы
Продолжительность: 2м 43с
Описание: С древних времен считается, что любое зеркало может стать порталом в мир мертвых. Одним из старейших мистических ритуалов с зеркалом является обряд вызова Пиковой Дамы. Четверо подростков в шутку решают призвать ее, но даже не подозревают, на какие ужасы они обрекли себя и своих близких. Теперь мстительный призрак не остановится, пока не получит их души.
Формат 3D: Anamorph SideBySide

Скриншоты





Media Info

Общее
Уникальный идентификатор : 168348648403719580577546155723716462494 (0x7EA6C532C2870C1E037BA147C20E879E)
Полное имя : C:\Users\Я\Desktop\Pikovay dama 3D.mkv
Формат : Matroska
Версия формата : Version 2
Размер файла : 205 Мбайт
Продолжительность : 2 м. 43 с.
Общий поток : 10,5 Мбит/сек
Программа кодирования : Lavf51.12.1
Библиотека кодирования : Lavf51.12.1
Видео
Идентификатор : 1
Формат : AVC
Формат/Информация : Advanced Video Codec
Профиль формата : Baseline@L4.0
Параметр CABAC формата : Нет
Параметр ReFrames формата : 1 кадр
Параметр GOP формата : M=1, N=12
Идентификатор кодека : V_MPEG4/ISO/AVC
Продолжительность : 2 м. 43 с.
Битрейт : 10,2 Мбит/сек
Ширина : 1920 пикселей
Высота : 1080 пикселей
Соотношение сторон : 16:9
Режим частоты кадров : Постоянный
Частота кадров : 25,000 кадров/сек
Цветовое пространство : YUV
Субдискретизация насыщенности : 4:2:0
Битовая глубина : 8 бит
Тип развёртки : Прогрессивная
Бит/(Пиксели*Кадры) : 0.196
Размер потока : 198 Мбайт (97%)
Default : Да
Forced : Нет
Аудио
Идентификатор : 2
Формат : AC-3
Формат/Информация : Audio Coding 3
Расширение режима : CM (complete main)
Параметр Endianness формата : Big
Идентификатор кодека : A_AC3
Продолжительность : 2 м. 43 с.
Вид битрейта : Постоянный
Битрейт : 128 Кбит/сек
Каналы : 2 канала
Расположение каналов : Front: L R
Частота : 44,1 КГц
Битовая глубина : 16 бит
Метод сжатия : С потерями
Размер потока : 2,50 Мбайт (1%)
Default : Да
Forced : Нет
Благодарности релизеру (3)

Торрент:

Статус:

Размер:

Зарегистрирован   [ 2016-03-28 20:45 ]

* не проверено

205 MB

 
 Мнение о фильме (5)





Это что значит? фильм выходил в 3д? Не могу найти его!
 

Очередное русское говно...
 

bazhut, Зря Вы так,фильм очень понравился,жаль что не в 3д.
 

bazhut, а трейлер то очень даже хорош,а фильма то в 3д тю тю,Релизёру респект,где только нарыла трейлер в 3д?
 

В просторах интернета нашла,а точнее в ю-тюбе,там такого добра.......