Торренты   
 
 


Крадущийся тигр, затаившийся дракон: Меч судьбы в 3Д / Crouching Tiger, Hidden Dragon: Sword of Destiny 3D (Юэнь Воо-пин / Yuen Woo-ping) [2016, Фэнтези, Боевик, Драма, Приключения, BDrip, 1080p]Full OverUnder / Вертикальная стереопара

Рейтинг 3D:
3 голосов
6.8
Рейтинг фильма:
4 голосов
6.7
 
Вы должны быть авторизированы,
чтобы ставить оценки


Крадущийся тигр, затаившийся дракон: Меч судьбы / Crouching Tiger, Hidden Dragon: Sword of Destiny
Год выпуска: 2016
Страна: Китай, США (My Way Film Company Ltd., Honger Music Venture, H.K.Screen Art, China Film Co., Netflix, The Weinstein Company, Pegasus Pictures)
Жанр: Фэнтези, Боевик, Драма, Приключения
Продолжительность: 01:42:31
Перевод: Любительский, многоголосый закадровый(Parovoz Production)
Русские субтитры: нет
Режиссер: Юэнь Воо-пин / Yuen Woo-ping
В ролях: Донни Йен, Мишель Йео, Гарри Шам мл., Джейсон Скотт Ли, Евгения Йуан, Жужу Чан, Крис Пэнг, Дэррил Квон, Роджер Йуан
Описание: Если верить легендам, то в мире существует меч, который наделяет своего обладателя сверхъестественную силу, а также позволяет создавать ход реальных исторических событий. Называется такой меч - Меч судьбы. Да вот, что многие, которые занимались его поиском так и не могли отыскать драгоценную вещь.
Великие мастера боевых искусств и повелители только мечтают о том, чтобы стать обладателями меча и ощутить всю мощность его силы. Если меч попадет в хорошие руки, то принесет всему миру доброту и свет, но когда он попадет в плохие руки, то мир погрузится во тьму. Однажды, этот меч уже попадал в руки злодеев, но герой, пожертвовав своей жизнью, смог вернуть его на место. Сейчас ведется жестокая борьба вражеских кланов за власть, но мечь еще не найден...
Сэмпл: http://sendfile.su/1226083
Качество: BDrip
Контейнер: MKV
Формат 3D: OverUnder / Вертикальная стереопара
Порядок ракурсов: левый ракурс первый
Видео кодек: x264
Аудио кодек: AC3
Видео: AVC / High@L5.0 / 23,976 fps / 1920х2160 / 16,1 Мбит/сек
Аудио: Русский / AC3 / 48 KHz / 5.1 ch / 640 Кбит/сек(MVO - Parovoz Production) (сведЕние в 5.1 - Ash61)
Аудио 2: Английский / AC3 / 48 KHz / 5.1 ch / 640 Кбит/сек
Релиз группы: ВНИМАНИЕ ! На встроенных ТВ-плеерах работать не будет!!!
ТВ Samsung в названии которого есть надпись Ultra HD , и LG Ultra HD 800 серии, Xiaomi Mi TV 2 воспроизводят полные стереопары встроенными плеерами
Железные плееры на которых воспроизводятся полные стереопары:Popcorn C-200 , Dune HD Smart D1 , Dune HD DUO , Dune HD Smart H1 , Dune HD Smart B1 , Dune HD Max , Dune HD TV-303D , Dune HD Base 3D, Philips HMP7001, Aura HD

MediaInfo

Общее
Уникальный идентификатор : 203356822237717629117802541901390689766 (0x98FD196DF9186DB2B6E702932A9635E6)
Полное имя : E:\закачки\Crouching Tiger, Hidden Dragon. Sword of Destiny.Rip by SeRoGa00.mkv
Формат : Matroska
Версия формата : Version 2
Размер файла : 12,7 Гбайт
Продолжительность : 1 ч. 42 м.
Общий поток : 17,8 Мбит/сек
Дата кодирования : UTC 2016-04-19 14:50:45
Программа кодирования : mkvmerge v3.4.0 ('Rapunzel') сборка от May 15 2010 09:38:20
Библиотека кодирования : libebml v0.8.0 + libmatroska v0.9.0
Видео
Идентификатор : 1
Формат : AVC
Формат/Информация : Advanced Video Codec
Профиль формата : High@L5.0
Параметр CABAC формата : Да
Параметр ReFrames формата : 4 кадра
Идентификатор кодека : V_MPEG4/ISO/AVC
Продолжительность : 1 ч. 42 м.
Битрейт : 16,1 Мбит/сек
Ширина : 1920 пикселей
Высота : 2160 пикселей
Соотношение сторон : 0,889
Частота кадров : 23,976 кадра/сек
Цветовое пространство : YUV
Субдискретизация насыщенности : 4:2:0
Битовая глубина : 8 бит
Тип развёртки : Прогрессивная
Бит/(Пиксели*Кадры) : 0.162
Размер потока : 11,6 Гбайт (91%)
Заголовок : Rip by SeRoGa00
Библиотека кодирования : x264 core 148 r2638 7599210
Настройки программы : cabac=1 / ref=4 / deblock=1:-3:-3 / analyse=0x3:0x113 / me=umh / subme=10 / psy=1 / psy_rd=1.00:0.15 / mixed_ref=1 / me_range=24 / chroma_me=1 / trellis=2 / 8x8dct=1 / cqm=0 / deadzone=21,11 / fast_pskip=1 / chroma_qp_offset=-3 / threads=9 / lookahead_threads=2 / sliced_threads=0 / nr=0 / decimate=1 / interlaced=0 / bluray_compat=0 / constrained_intra=0 / bframes=10 / b_pyramid=2 / b_adapt=2 / b_bias=0 / direct=3 / weightb=1 / open_gop=0 / weightp=2 / keyint=250 / keyint_min=23 / scenecut=40 / intra_refresh=0 / rc_lookahead=60 / rc=crf / mbtree=1 / crf=18.0 / qcomp=0.60 / qpmin=10 / qpmax=69 / qpstep=4 / vbv_maxrate=40000 / vbv_bufsize=50000 / crf_max=0.0 / nal_hrd=none / filler=0 / ip_ratio=1.40 / aq=1:1.00
Язык : English
Default : Нет
Forced : Нет
Аудио #1
Идентификатор : 2
Формат : AC-3
Формат/Информация : Audio Coding 3
Расширение режима : CM (complete main)
Параметр Endianness формата : Big
Идентификатор кодека : A_AC3
Продолжительность : 1 ч. 42 м.
Вид битрейта : Постоянный
Битрейт : 640 Кбит/сек
Каналы : 6 каналов
Расположение каналов : Front: L C R, Side: L R, LFE
Частота : 48,0 КГц
Битовая глубина : 16 бит
Метод сжатия : С потерями
Размер потока : 469 Мбайт (4%)
Язык : Russian
Default : Да
Forced : Нет
Аудио #2
Идентификатор : 3
Формат : AC-3
Формат/Информация : Audio Coding 3
Расширение режима : CM (complete main)
Параметр Endianness формата : Big
Идентификатор кодека : A_AC3
Продолжительность : 1 ч. 42 м.
Вид битрейта : Постоянный
Битрейт : 640 Кбит/сек
Каналы : 6 каналов
Расположение каналов : Front: L C R, Side: L R, LFE
Частота : 48,0 КГц
Битовая глубина : 16 бит
Метод сжатия : С потерями
Размер потока : 469 Мбайт (4%)
Язык : English
Default : Нет
Forced : Нет

Скриншоты


Благодарности релизеру (5)

Торрент:

Статус:

Размер:

Зарегистрирован   [ 2016-04-19 20:58 ]

* не проверено

12.72 GB