Торренты   
 
 

 

Снежная королева 2: Перезаморозка в 3Д / The Snow Queen: Magic Of The Ice Mirror 3D (Алексей Цицилин) [2014, льм, Фэнтези, Приключения, Семейный, BDrip, 1080p]Full OverUnder / Вертикальная стереопара

Рейтинг 3D:
3 голосов
8.3
Рейтинг фильма:
3 голосов
6.7
 
Вы должны быть авторизированы,
чтобы ставить оценки


Снежная королева 2: Перезаморозка / The Snow Queen: Magic Of The Ice Mirror
Год выпуска: 2014
Страна: Россия (Базелевс Продакшн, Wizart Animation, Ascot Elite Entertainment Group, Cinema Fund Russia)
Жанр: льм, Фэнтези, Приключения, Семейный
Продолжительность: 01:18:50
Перевод: Профессиональный дублированный(iTunes)
Русские субтитры: нет
Режиссер на русском: Алексей Цицилин
В ролях: Иван Охлобыстин, Нюша Шурочкина, Анна Хилькевич, Александр Уман, Игорь Бортник, Алексей Лихницкий, Роман Юнусов, Александр Гудков.
Описание: Тщеславный тролль Орм давно мечтает о лаврах героя, и наконец получает этот шанс: северный ветер грозит миру вечной зимой и похищает Марибель. Рука принцессы и королевство троллей достанутся тому, кто вызволит ее из снежного плена. Однажды Орм победил зиму с помощью друзей, теперь он хочет действовать в одиночку. На нем доспехи из сковородок, за ним — отряд трусливых троллей, а впереди — опасный путь к замку Снежной королевы. Но, к счастью, друзья не помнят обид: храбрая Герда, застенчивый Кай, удалая Альфида и весёлая Лута не бросят Орма в беде. А значит их ждут невероятные приключения!
Сэмпл: http://sendfile.su/1226716
Качество: BDrip
Контейнер: MKV
Формат 3D: OverUnder / Вертикальная стереопара
Порядок ракурсов: левый ракурс первый
Видео кодек: x264
Аудио кодек: AC3
Видео: AVC / High@L5.0 / 23,976 fps / 1920х2160 / 16,1 Мбит/сек
Аудио: Русский / AC3 / 48 KHz / 5.1 ch / 384 Кбит/сек(iTunes)
Релиз группы: ВНИМАНИЕ ! На встроенных ТВ-плеерах работать не будет!!!
ТВ Samsung в названии которого есть надпись Ultra HD , и LG Ultra HD 800 серии, Xiaomi Mi TV 2 воспроизводят полные стереопары встроенными плеерами
Железные плееры на которых воспроизводятся полные стереопары:Popcorn C-200 , Dune HD Smart D1 , Dune HD DUO , Dune HD Smart H1 , Dune HD Smart B1 , Dune HD Max , Dune HD TV-303D , Dune HD Base 3D, Philips HMP7001, Aura HD

MediaInfo

Общее
Уникальный идентификатор : 219190688609834087233753924995322868611 (0xA4E69750863A81A195B18B3E59E5F383)
Полное имя : E:\закачки\The Snow Queen Magic Of The Ice Mirror.Rip by SeRoGa00.mkv
Формат : Matroska
Версия формата : Version 2
Размер файла : 9,24 Гбайт
Продолжительность : 1 ч. 18 м.
Общий поток : 16,8 Мбит/сек
Дата кодирования : UTC 2016-04-21 11:36:31
Программа кодирования : mkvmerge v3.4.0 ('Rapunzel') сборка от May 15 2010 09:38:20
Библиотека кодирования : libebml v0.8.0 + libmatroska v0.9.0
Видео
Идентификатор : 1
Формат : AVC
Формат/Информация : Advanced Video Codec
Профиль формата : High@L5.0
Параметр CABAC формата : Да
Параметр ReFrames формата : 4 кадра
Идентификатор кодека : V_MPEG4/ISO/AVC
Продолжительность : 1 ч. 18 м.
Битрейт : 16,1 Мбит/сек
Ширина : 1920 пикселей
Высота : 2160 пикселей
Соотношение сторон : 0,889
Частота кадров : 23,976 кадра/сек
Цветовое пространство : YUV
Субдискретизация насыщенности : 4:2:0
Битовая глубина : 8 бит
Тип развёртки : Прогрессивная
Бит/(Пиксели*Кадры) : 0.162
Размер потока : 8,84 Гбайт (96%)
Заголовок : Rip by SeRoGa00
Библиотека кодирования : x264 core 148 r2638 7599210
Настройки программы : cabac=1 / ref=4 / deblock=1:-3:-3 / analyse=0x3:0x113 / me=umh / subme=10 / psy=1 / psy_rd=1.00:0.15 / mixed_ref=1 / me_range=24 / chroma_me=1 / trellis=2 / 8x8dct=1 / cqm=0 / deadzone=21,11 / fast_pskip=1 / chroma_qp_offset=-3 / threads=9 / lookahead_threads=2 / sliced_threads=0 / nr=0 / decimate=1 / interlaced=0 / bluray_compat=0 / constrained_intra=0 / bframes=10 / b_pyramid=2 / b_adapt=2 / b_bias=0 / direct=3 / weightb=1 / open_gop=0 / weightp=2 / keyint=250 / keyint_min=23 / scenecut=40 / intra_refresh=0 / rc_lookahead=60 / rc=crf / mbtree=1 / crf=18.0 / qcomp=0.60 / qpmin=10 / qpmax=69 / qpstep=4 / vbv_maxrate=40000 / vbv_bufsize=50000 / crf_max=0.0 / nal_hrd=none / filler=0 / ip_ratio=1.40 / aq=1:1.00
Язык : English
Default : Нет
Forced : Нет
Аудио
Идентификатор : 2
Формат : AC-3
Формат/Информация : Audio Coding 3
Расширение режима : CM (complete main)
Параметр Endianness формата : Big
Идентификатор кодека : A_AC3
Продолжительность : 1 ч. 18 м.
Вид битрейта : Постоянный
Битрейт : 384 Кбит/сек
Каналы : 6 каналов
Расположение каналов : Front: L C R, Side: L R, LFE
Частота : 48,0 КГц
Битовая глубина : 16 бит
Метод сжатия : С потерями
Размер потока : 217 Мбайт (2%)
Язык : Russian
Default : Да
Forced : Нет

Скриншоты


Благодарности релизеру (2)

Торрент:

Статус:

Размер:

Зарегистрирован   [ 2016-04-21 17:30 ]

* не проверено

9.24 GB

 
 Мнение о фильме (2)





Обьяните, может я что то не понимаю? Где найти формат для просмотра по телевизору?
И что это за формат 1920х2160 , для чего он?
 

это два ПОЛНЫХ неиспорченных кадра 1920х1080 без сплющивания. )
я смотрю такие с ноута через повер двд 12.