Торренты   
 
 

 

Полет бабочек / Flight of the Butterflies (Майк Сли) [2012 г., Anamorph OverUnder]

Рейтинг 3D:
3 голосов
7.4
Рейтинг фильма:
3 голосов
6.6
 
Вы должны быть авторизированы,
чтобы ставить оценки


Полет бабочек / Flight of the Butterflies
Год выпуска: 2012
Страна: Великобритания, Мексика, Канада
Жанр: документальный, драма, семейный, биография
Продолжительность: 00:44:37
Перевод: Отсутствует
Режиссер: Майк Сли
В ролях: Гордон Пинсент, Патриция Филлипс, Шон Бенсон, Стивен Богерт, Меган Фоллоуз, Manolo Jimenez Frayre, Джейден Грег, Дилан Хорнер, Кевин МакДональд, Херардо Мартинес
Описание: Фильм о сотнях миллионов бабочек, которые с приходом зимы совершают долгий путь, мигрируя из Канады в Мексику через США.

Качество: BDRip
Формат 3D: Anamorph OverUnder
Видео: h.264 1920x1080 ~16.0 Mbps
Аудио:
1. Немецкий - AC3 / 5.1 Ch / 640 kbps
2. Английский - AC3 / 5.1 Ch / 640 kbps

Скриншоты

Media Info

Format : Matroska
Format version : Version 2
File size : 5.48 GiB
Duration : 44mn 37s
Overall bit rate : 17.6 Mbps
Movie name : FLUG_DER_SCHMETTERLINGE.Title8
Encoded date : UTC 2016-05-20 10:16:38
Writing library : libebml v0.7.8 + libmatroska v0.8.1
Video
ID : 1
Format : AVC
Format/Info : Advanced Video Codec
Format profile : High@L4.1
Format settings, CABAC : Yes
Codec ID : V_MPEG4/ISO/AVC
Duration : 44mn 37s
Bit rate : 16.0 Mbps
Width : 1 920 pixels
Height : 1 080 pixels
Display aspect ratio : 16:9
Frame rate mode : Constant
Frame rate : 23.976 fps
Color space : YUV
Chroma subsampling : 4:2:0
Bit depth : 8 bits
Scan type : Progressive
Bits/(Pixel*Frame) : 0.321
Stream size : 4.97 GiB (91%)
Default : Yes
Forced : No
Audio #1
ID : 2
Format : AC-3
Format/Info : Audio Coding 3
Mode extension : CM (complete main)
Format settings, Endianness : Big
Codec ID : A_AC3
Duration : 44mn 37s
Bit rate mode : Constant
Bit rate : 640 Kbps
Channel(s) : 6 channels
Channel positions : Front: L C R, Side: L R, LFE
Sampling rate : 48.0 KHz
Bit depth : 16 bits
Compression mode : Lossy
Stream size : 204 MiB (4%)
Language : German
Default : Yes
Forced : No
Audio #2
ID : 3
Format : AC-3
Format/Info : Audio Coding 3
Mode extension : CM (complete main)
Format settings, Endianness : Big
Codec ID : A_AC3
Duration : 44mn 37s
Bit rate mode : Constant
Bit rate : 640 Kbps
Channel(s) : 6 channels
Channel positions : Front: L C R, Side: L R, LFE
Sampling rate : 48.0 KHz
Bit depth : 16 bits
Compression mode : Lossy
Stream size : 204 MiB (4%)
Language : English
Default : No
Forced : No
Благодарности релизеру (4)

Торрент:

Статус:

Размер:

Зарегистрирован   [ 2016-05-20 14:32 ]

* не проверено

5.48 GB