Торренты   
 
 

 

Боги Египта в 3Д / Gods of Egypt 3D (Алекс Пройас / Alex Proyas) [2016, Фэнтези, Боевик, Приключения, BDrip, 1080p]Full OverUnder / Вертикальная стереопара

Рейтинг 3D:
8 голосов
7.8
Рейтинг фильма:
10 голосов
7.2
 
Вы должны быть авторизированы,
чтобы ставить оценки


Боги Египта / Gods of Egypt
Год выпуска: 2016
Страна: США (Lionsgate Company, Summit Entertainment, Mystery Clock Cinema, TIK Films, A Thunder Road Pictures)
Жанр: Фэнтези, Боевик, Приключения
Продолжительность: 02:07:03
Перевод: Профессиональный (дублированный)
Русские субтитры: нет
Режиссер: Алекс Пройас / Alex Proyas
В ролях: Джерард Батлер, Николай Костер-Вальдау, Эбби Ли, Брентон Туэйтс, Кортни Итон, Руфус Сьюэлл, Джеффри Раш, Элоди Юнг, Чедвик Боузман, Брюс Спенс
Описание: Некогда мирное и процветающее египетское царство погружается в хаос: беспощадный бог тьмы Сет убивает своего брата Осириса и узурпирует трон. Вызов ему неожиданно бросает простой смертный, находчивый молодой вор. Чтобы вернуть к жизни свою прекрасную возлюбленную, ему приходится заручиться поддержкой могущественного и мстительного бога Гора. Лишь выдержав испытание на прочность и принеся в жертву все самое дорогое, им удастся противостоять Сету и его приспешникам в мире живых и мире мертвых.
Сэмпл: http://sendfile.su/1236109
Качество: BDrip
Контейнер: MKV
Формат 3D: OverUnder / Вертикальная стереопара
Порядок ракурсов: левый ракурс первый
Видео кодек: x264
Аудио кодек: DTS
Видео: AVC / High@L5.0 / 23,976 fps / 1920х2160 / 17,3 Мбит/сек
Аудио: Русский / DTS / 48 KHz / 5.1 ch / 1510 Кбит/сек
Аудио 2: Английский / AC3 / 48 KHz / 5.1 ch / 640 Кбит/сек
Релиз группы: ВНИМАНИЕ ! На встроенных ТВ-плеерах работать не будет!!!
ТВ Samsung в названии которого есть надпись Ultra HD , и LG Ultra HD 800 серии, Xiaomi Mi TV 2 воспроизводят полные стереопары встроенными плеерами
Железные плееры на которых воспроизводятся полные стереопары:Popcorn C-200 , Dune HD Smart D1 , Dune HD DUO , Dune HD Smart H1 , Dune HD Smart B1 , Dune HD Max , Dune HD TV-303D , Dune HD Base 3D, Philips HMP7001, Aura HD

MediaInfo

Общее
Уникальный идентификатор : 251326028224698289025397744362872522521 (0xBD13A1E2185174088797F48EA9D24719)
Полное имя : F:\видео\Gods of Egypt.Rip by SeRoGa00.mkv
Формат : Matroska
Версия формата : Version 2
Размер файла : 17,6 Гбайт
Продолжительность : 2 ч. 7 м.
Общий поток : 19,8 Мбит/сек
Дата кодирования : UTC 2016-05-22 14:59:47
Программа кодирования : mkvmerge v3.4.0 ('Rapunzel') сборка от May 15 2010 09:38:20
Библиотека кодирования : libebml v0.8.0 + libmatroska v0.9.0
Видео
Идентификатор : 1
Формат : AVC
Формат/Информация : Advanced Video Codec
Профиль формата : High@L5.0
Параметр CABAC формата : Да
Параметр ReFrames формата : 4 кадра
Идентификатор кодека : V_MPEG4/ISO/AVC
Продолжительность : 2 ч. 7 м.
Битрейт : 17,3 Мбит/сек
Ширина : 1920 пикселей
Высота : 2160 пикселей
Соотношение сторон : 0,889
Частота кадров : 23,976 кадра/сек
Цветовое пространство : YUV
Субдискретизация насыщенности : 4:2:0
Битовая глубина : 8 бит
Тип развёртки : Прогрессивная
Бит/(Пиксели*Кадры) : 0.174
Размер потока : 15,3 Гбайт (87%)
Заголовок : Rip by SeRoGa00
Библиотека кодирования : x264 core 148 r2638 7599210
Настройки программы : cabac=1 / ref=4 / deblock=1:-3:-3 / analyse=0x3:0x113 / me=umh / subme=10 / psy=1 / psy_rd=1.00:0.15 / mixed_ref=1 / me_range=24 / chroma_me=1 / trellis=2 / 8x8dct=1 / cqm=0 / deadzone=21,11 / fast_pskip=1 / chroma_qp_offset=-3 / threads=9 / lookahead_threads=2 / sliced_threads=0 / nr=0 / decimate=1 / interlaced=0 / bluray_compat=0 / constrained_intra=0 / bframes=10 / b_pyramid=2 / b_adapt=2 / b_bias=0 / direct=3 / weightb=1 / open_gop=0 / weightp=2 / keyint=250 / keyint_min=23 / scenecut=40 / intra_refresh=0 / rc_lookahead=60 / rc=crf / mbtree=1 / crf=18.0 / qcomp=0.60 / qpmin=10 / qpmax=69 / qpstep=4 / vbv_maxrate=40000 / vbv_bufsize=50000 / crf_max=0.0 / nal_hrd=none / filler=0 / ip_ratio=1.40 / aq=1:1.00
Язык : English
Default : Нет
Forced : Нет
Аудио #1
Идентификатор : 2
Формат : DTS
Формат/Информация : Digital Theater Systems
Идентификатор кодека : A_DTS
Продолжительность : 2 ч. 7 м.
Вид битрейта : Постоянный
Битрейт : 1510 Кбит/сек
Каналы : 6 каналов
Расположение каналов : Front: L C R, Side: L R, LFE
Частота : 48,0 КГц
Битовая глубина : 16 бит
Метод сжатия : С потерями
Размер потока : 1,34 Гбайт (8%)
Язык : Russian
Default : Да
Forced : Нет
Аудио #2
Идентификатор : 3
Формат : AC-3
Формат/Информация : Audio Coding 3
Расширение режима : CM (complete main)
Параметр Endianness формата : Big
Идентификатор кодека : A_AC3
Продолжительность : 2 ч. 7 м.
Вид битрейта : Постоянный
Битрейт : 640 Кбит/сек
Каналы : 6 каналов
Расположение каналов : Front: L C R, Side: L R, LFE
Частота : 48,0 КГц
Битовая глубина : 16 бит
Метод сжатия : С потерями
Размер потока : 582 Мбайт (3%)
Язык : English
Default : Нет
Forced : Нет

Скриншоты


Благодарности релизеру (12)

Торрент:

Статус:

Размер:

Зарегистрирован   [ 2016-05-22 21:02 ]

* не проверено

17.57 GB

 
 Мнение о фильме (32)

1, 2  След.






Ну кто же наконец обрежет эти черные полосы.....
 

LOCO, рип без черных полос уже несколько дней как выложен.
 

Хватит ныть!! купи телек побольше и критичность черных полос сама собой отпадет!!
 

vitootiv, фу, как грубо!...
 

vitootiv, каким образом отпадет? Полезное пространство все равно будет пропадать. Включи логику.
 

Эй умник посмотри на разрешение какое полезное пространство?
 

Оно пропадет если кокраз отрезать кусок фильма (типо без черных полос)
 

купи телек побольше и критичность черных полос сама собой отпадет!!
а лучше 3D проектор и чёрных полосах вообще забудешь...
 

Это точно
 

serega768, как скочать то?никто не раздает даже
 

Я раздаю
 

vitootiv, скОчать - это от слова "скотч"?
 

serega768, я все понимаю человек занятой пришлось скочать с другого сайта!напиши время примерно когда ты на раздаче?хочу шаг вперед все или ничего(2160p)скачать
 

Amstaff, от слова скоачивать!
 

vitootiv Шаг вперед все или ничего есть на рутрекере, у меня на винте его нет. Я не могу хранить на винте все свои рипы, тогда для новых места не останится.
 

serega768, вот и я то же самое пытаюсь обьяснить - мне тоже часто пишут почему не раздаю.
 

serega768, он везде есть я это и так знал!мне именно 2160p надо а не огрызок !
 

serega768, если не трудно мож знаешь где есть такой кинь ссылку?
 

Никак не могу найти качабельный шаг в перед5 2160p
 

На рутрекере мой рип 2160p правда всего 2 сида. рutracker.org/forum/viewtopic.php?t=4883152
 

Страница 1 из 2

1, 2  След.