Торренты   
 
 

 

Покорение небес с Дэвидом Аттенборо / Conquest of the Skies (Дэвид Ли) [2014 г., Anamorph OverUnder]

Рейтинг 3D:
2 голосов
7.2
Рейтинг фильма:
2 голосов
8.1
 
Вы должны быть авторизированы,
чтобы ставить оценки


Покорение небес с Дэвидом Аттенборо / Conquest of the Skies
Год выпуска: 2014
Страна: Великобритания
Жанр: документальный
Продолжительность: 02:38:53
Перевод: Отсутствует
Рассказчик: Дэвид Аттенборо
Режиссер: Дэвид Ли
Описание: Способность летать является одним из величайших достижений природы. Более ста миллиардов существ парят в небе сегодня, от крошечной, питающейся нектаром колибри до защищённых бронёй жуков, причудливых крылатых ящериц и летучих мышей, охотящихся тёмной ночью и ориентирующихся с помощью ультразвука.
В Покорении небес 3D, Дэвид Аттенборо путешествует во времени, чтобы разгадать удивительную, 300-миллионолетнюю историю летающих животных. Кто были первые летающие существа, как они развивались, и как приспособились в огромном разнообразии воздухоплавателей, которые заполняют наше небо сегодня? Только теперь он может выяснить скрытую механику преодоления ими земного притяжения, используя передовые CGI-технологии, новейшие технологии съемки с высоким разрешением, и новаторский научный анализ
.

Формат 3D: Anamorph OverUnder
Видео:
Качество: BDRip
Контейнер: MKV
Формат 3D: Anamorph OverUnder
Видео: h.264 1920x1080 ~10.8 Mbps
Аудио:
1. Английский - AC3 / 5.1 Ch / 640 kbps

Скриншоты

Media Info

Format : Matroska
Format version : Version 2
File size : 12.9 GiB
Duration : 2h 38mn
Overall bit rate : 11.6 Mbps
Movie name : DAVID_ATTENBOROUGH'S_CONQUEST_OF_THE_SKIES_3D.Title9
Encoded date : UTC 2016-05-29 02:48:48
Writing library : libebml v0.7.8 + libmatroska v0.8.1
Video
ID : 1
Format : AVC
Format/Info : Advanced Video Codec
Format profile : High@L4.1
Format settings, CABAC : Yes
Codec ID : V_MPEG4/ISO/AVC
Duration : 2h 38mn
Bit rate : 10.8 Mbps
Width : 1 920 pixels
Height : 1 080 pixels
Display aspect ratio : 16:9
Frame rate mode : Constant
Frame rate : 23.976 fps
Color space : YUV
Chroma subsampling : 4:2:0
Bit depth : 8 bits
Scan type : Progressive
Bits/(Pixel*Frame) : 0.216
Stream size : 11.9 GiB (93%)
Default : Yes
Forced : No
Audio
ID : 2
Format : AC-3
Format/Info : Audio Coding 3
Mode extension : CM (complete main)
Format settings, Endianness : Big
Codec ID : A_AC3
Duration : 2h 38mn
Bit rate mode : Constant
Bit rate : 640 Kbps
Channel(s) : 6 channels
Channel positions : Front: L C R, Side: L R, LFE
Sampling rate : 48.0 KHz
Bit depth : 16 bits
Compression mode : Lossy
Stream size : 727 MiB (6%)
Language : English
Default : Yes
Forced : No
Благодарности релизеру (3)

Торрент:

Статус:

Размер:

Зарегистрирован   [ 2016-05-29 08:01 ]

* не проверено

12.9 GB

 
 Мнение о фильме (9)





Перевод: Отсутствует
 

zhuk.m, да это и не страшно - и без перевода можно полюбоваться на различных летающих существ. Красивый фильм! рекомендую.
 

Видео: h.264 1920x1080 (Crop) ~10.8 Mbps
Не кроп.
 

ash61, копипастил текст для быстроты ))) исправил уже.
спасибо!
 

Что, точно нигде нет перевода?
 

olivanos, точно.
 

Amstaff, спасибо за ответ, но скачивать подожду.- хочется и послушать. Предыдущие фильмы с Аттенборо про то, как динозавры научились летать, и про музей, очень понравились.
 

нифига не качается:(
 

Перевод: Отсутствует
Уже есть...
Amstaff дорога нужна (Русский / AC3 / 48 KHz / 5.1 ch / 640 Kbps (VO - «Омикрон»)? Или сам все сделаешь?..К сожелению у тебя не указаны...
Серии
1. Первые летающие / The First to Fly (00:53:17)
2. Соперники / Rivals (00:52:29)
3. Триумф / Triumph (00:53:07)
Или просто скачай рип от Александра и замени торрент файл