Торренты   
 
 

 

Чудища морей 3D: Доисторическое приключение / Sea Monsters. A Prehistoric Adventure (Шон Маклеод Филлипс) [2007 г., Anamorph SideBySide]

Рейтинг 3D:
5 голосов
7.6
Рейтинг фильма:
5 голосов
7.0
 
Вы должны быть авторизированы,
чтобы ставить оценки


Чудища морей 3D: Доисторическое приключение / Sea Monsters. A Prehistoric Adventure
Год выпуска: 2007
Страна: США
Жанр: документальный, мультфильм, приключения
Продолжительность: 00:37:45
Перевод: Любительский (одноголосый)
Режиссер: Шон Маклеод Филлипс
В ролях: Джерри Хоффман, Jennifer Aguilar, Michael Ashcraft, Michael Ashcroft, Paul Burmaster, Paul W. Burmaster, Albert J. Burnes, Daniel Coldham, Toni Dodd, Derek Gamble
Описание: Фильм-путешествие в малоизученный мир «необычных» — подводных — динозавров. Здесь тесно переплетаются красочная фотореалистическая анимация и уникальные палеонтологические находки со всего мира — сокровища, которые пролили свет на жизнь персонажей фильма
TV-Rip
Формат 3d: Anamorph SideBySide
Порядок ракурсов: Параллельная пара

Скриншоты



MediaInfo

General
Format : Matroska
File size : 1.17 GiB
Duration : 37mn 45s
Overall bit rate : 4 417 Kbps
Movie name : Sea.Monsters.A.Prehistoric.Adventure.2D.2007.BDRip.x264.Rus.Eng.-VoLoNa@HDtvSHek
Encoded date : UTC 2011-02-14 16:30:35
Writing application : mkvmerge v4.4.0 ('Die Wiederkehr') сборка от Oct 31 2010 21:52:48
Writing library : libebml v1.0.0 + libmatroska v1.0.0
Video
ID : 1
Format : AVC
Format/Info : Advanced Video Codec
Format profile : High@L4.1
Format settings, CABAC : Yes
Format settings, ReFrames : 4 frames
Codec ID : V_MPEG4/ISO/AVC
Duration : 37mn 45s
Bit rate : 3 948 Kbps
Width : 1 920 pixels
Height : 1 080 pixels
Display aspect ratio : 16:9
Frame rate : 25.000 fps
Color space : YUV
Chroma subsampling : 4:2:0
Bit depth : 8 bits
Scan type : Progressive
Bits/(Pixel*Frame) : 0.076
Stream size : 1.02 GiB (88%)
Writing library : x264 core 104 r1698 c41b8f0
Encoding settings : cabac=1 / ref=3 / deblock=1:0:0 / analyse=0x3:0x113 / me=hex / subme=5 / psy=1 / psy_rd=0.00:0.00 / mixed_ref=1 / me_range=16 / chroma_me=1 / trellis=1 / 8x8dct=1 / cqm=0 / deadzone=21,11 / fast_pskip=1 / chroma_qp_offset=0 / threads=3 / sliced_threads=0 / nr=0 / decimate=1 / interlaced=0 / constrained_intra=0 / bframes=3 / b_pyramid=2 / b_adapt=1 / b_bias=0 / direct=1 / weightb=1 / open_gop=0 / weightp=2 / keyint=250 / keyint_min=25 / scenecut=40 / intra_refresh=0 / rc_lookahead=40 / rc=2pass / mbtree=1 / bitrate=3948 / ratetol=1.0 / qcomp=0.60 / qpmin=10 / qpmax=51 / qpstep=4 / cplxblur=20.0 / qblur=0.5 / ip_ratio=1.40 / aq=1:1.00
Audio
ID : 2
Format : AC-3
Format/Info : Audio Coding 3
Mode extension : CM (complete main)
Codec ID : A_AC3
Duration : 37mn 45s
Bit rate mode : Constant
Bit rate : 448 Kbps
Channel(s) : 6 channels
Channel positions : Front: L C R, Side: L R, LFE
Sampling rate : 48.0 KHz
Bit depth : 16 bits
Compression mode : Lossy
Delay relative to video : 31ms
Stream size : 121 MiB (10%)
Title : Russian - VO - Musik-Pusik
Language : Russian
Благодарности релизеру (13)

Торрент:

Статус:

Размер:

Зарегистрирован   [ 2011-02-14 22:53 ]

проверено

1.17 GB