Торренты   
 
 

 

Крякнутые каникулы (Виктор Лакисов) [2016 г., Anamorph OverUnder]

Рейтинг 3D:
2 голосов
7.5
Рейтинг фильма:
2 голосов
7.0
 
Вы должны быть авторизированы,
чтобы ставить оценки


Крякнутые каникулы
Год выпуска: 2016
Страна: Россия
Жанр: мультфильм, комедия, приключения, семейный
Продолжительность: 01:22:00
Перевод: Не требуется
Режиссер: Виктор Лакисов
В ролях: Никита Пресняков, Владимир Пресняков мл., Эвелина Блёданс, Полина Максимова, Александр Головин, Всеволод Кузнецов, Борис Токарев, Станислав Стрелков, Елена Шульман, Михаил Лукашов
Описание: Перелётные кряквы из России, решившие провести свой отдых на Гавайях, сбиваются с пути и приземляются на китайский остров, на котором живут утки-мандаринки. Между двумя стаями возникает много смешных и курьёзных ситуаций. Пока отцы дерутся и спорят, Ник, сын императора мандаринок и Ариша, дочь командира русских крякв, знакомятся и становятся друзьями. Дети должны объединить мандаринок и крякв и победить Ведьму Марго, которая хочет погубить солнце.

Качество: BDRip
Формат 3D: Anamorph OverUnder
Видео: h.264 1920x1080 ~15.7 Mbps
Аудио:
1. Русский - AC3 / 2.0 Ch / 384 kbps (iTunes)

Скриншоты

Media Info

Format : Matroska
Format version : Version 2
File size : 9.41 GiB
Duration : 1h 22mn
Overall bit rate : 16.4 Mbps
Movie name : QUACKERZ_3D.Title0
Encoded date : UTC 2016-06-06 12:26:48
Writing library : libebml v0.7.8 + libmatroska v0.8.1
Video
ID : 1
Format : AVC
Format/Info : Advanced Video Codec
Format profile : High@L4.1
Format settings, CABAC : Yes
Codec ID : V_MPEG4/ISO/AVC
Duration : 1h 22mn
Bit rate : 15.7 Mbps
Width : 1 920 pixels
Height : 1 080 pixels
Display aspect ratio : 16:9
Frame rate mode : Constant
Frame rate : 23.976 fps
Color space : YUV
Chroma subsampling : 4:2:0
Bit depth : 8 bits
Scan type : Progressive
Bits/(Pixel*Frame) : 0.316
Stream size : 9.00 GiB (96%)
Default : Yes
Forced : No
Audio
ID : 2
Format : AC-3
Format/Info : Audio Coding 3
Mode extension : CM (complete main)
Format settings, Endianness : Big
Codec ID : A_AC3
Duration : 1h 22mn
Bit rate mode : Constant
Bit rate : 384 Kbps
Channel(s) : 2 channels
Channel positions : Front: L R
Sampling rate : 48.0 KHz
Bit depth : 16 bits
Compression mode : Lossy
Stream size : 225 MiB (2%)
Language : Russian
Default : Yes
Forced : No
Благодарности релизеру (4)

Торрент:

Статус:

Размер:

Зарегистрирован   [ 2016-06-06 17:02 ]

* не проверено

9.41 GB