Торренты   
 
 


Бэтмен против Супермена: На заре справедливости / Batman v Superman: Dawn of Justice (Зак Снайдер) [2016 г., Anamorph OverUnder]

Рейтинг 3D:
12 голосов
5.2
Рейтинг фильма:
12 голосов
4.1
 
Вы должны быть авторизированы,
чтобы ставить оценки


Бэтмен против Супермена: На заре справедливости / Batman v Superman: Dawn of Justice
Год выпуска: 2016
Страна: США
Жанр: фантастика, фэнтези, боевик
Продолжительность: 02:31:41
Перевод: Профессиональный (полное дублирование)
Режиссер: Зак Снайдер
В ролях: Генри Кавилл, Бен Аффлек, Галь Гадот, Джейсон Момоа, Эми Адамс, Джесси Айзенберг, Лорен Кохэн, Джеффри Дин Морган, Эзра Миллер, Дайан Лэйн
Описание: Опасаясь, что действия богоподобного супергероя так и останутся бесконтрольными, грозный и могущественный страж Готэм Сити бросает вызов самому почитаемому в наши дни спасителю Метрополиса, в то время как весь остальной мир решает, какой герой ему по-настоящему нужен. И пока Бэтмен и Супермен пребывают в состоянии войны друг с другом, возникает новая угроза, которая ставит человечество под самую большую опасность, с которой оно когда-либо сталкивалось.
Качество: BDRip
Контейнер: MKV
Формат 3D: Anamorph OverUnder
Видео: h.264 1920x800 ~8.7 Mbps
Аудио:
1. Русский - AC3 / 5.1 Ch / 384 kbps (дубляж - iTunes)
2. Английский - AC3 / 5.1 Ch / 448 kbps
Субтитры (PGS):
1. Русские - форсированные
2. Русские - полные
3. Английские - полные

Скриншоты

Media Info

Format : Matroska
Format version : Version 2
File size : 10.3 GiB
Duration : 2h 31mn
Overall bit rate mode : Variable
Overall bit rate : 9 745 Kbps
Movie name : BATMAN_V_SUPERMAN_DOJ_3D.Title0
Video
ID : 1
Format : AVC
Format/Info : Advanced Video Codec
Format profile : High@L4.1
Format settings, CABAC : Yes
Format settings, GOP : M=3, N=24
Codec ID : V_MPEG4/ISO/AVC
Duration : 2h 31mn
Bit rate mode : Variable
Bit rate : 8 719 Kbps
Width : 1 920 pixels
Height : 1 080 pixels
Display aspect ratio : 16:9
Frame rate mode : Constant
Frame rate : 23.976 fps
Color space : YUV
Chroma subsampling : 4:2:0
Bit depth : 8 bits
Scan type : Progressive
Bits/(Pixel*Frame) : 0.175
Stream size : 9.24 GiB (89%)
Default : Yes
Forced : No
Color primaries : BT.709
Transfer characteristics : BT.709
Matrix coefficients : BT.709
Audio #1
ID : 2
Format : AC-3
Format/Info : Audio Coding 3
Mode extension : CM (complete main)
Format settings, Endianness : Big
Codec ID : A_AC3
Duration : 2h 31mn
Bit rate mode : Constant
Bit rate : 384 Kbps
Channel(s) : 6 channels
Channel positions : Front: L C R, Side: L R, LFE
Sampling rate : 48.0 KHz
Bit depth : 16 bits
Compression mode : Lossy
Stream size : 417 MiB (4%)
Language : Russian
Default : Yes
Forced : No
Audio #2
ID : 3
Format : AC-3
Format/Info : Audio Coding 3
Mode extension : CM (complete main)
Format settings, Endianness : Big
Codec ID : A_AC3
Duration : 2h 31mn
Bit rate mode : Constant
Bit rate : 448 Kbps
Channel(s) : 6 channels
Channel positions : Front: L C R, Side: L R, LFE
Sampling rate : 48.0 KHz
Bit depth : 16 bits
Compression mode : Lossy
Stream size : 486 MiB (5%)
Language : English
Default : No
Forced : No
Text #1
ID : 4
Format : PGS
Codec ID : S_HDMV/PGS
Codec ID/Info : The same subtitle format used on BDs/HD-DVDs
Language : Russian
Default : No
Forced : No
Text #2
ID : 5
Format : PGS
Codec ID : S_HDMV/PGS
Codec ID/Info : The same subtitle format used on BDs/HD-DVDs
Language : Russian
Default : No
Forced : No
Text #3
ID : 6
Format : PGS
Codec ID : S_HDMV/PGS
Codec ID/Info : The same subtitle format used on BDs/HD-DVDs
Language : English
Default : No
Forced : No
Благодарности релизеру (17)

Торрент:

Статус:

Размер:

Зарегистрирован   [ 2016-07-07 18:59 ]

* не проверено

10.32 GB

 
 Мнение о фильме (5)





От души благодарю :)
 

На редкость мутный фильм. И это написал человек, которому нравится вся остальная Марвеловская муть.
 

loska, Правда это не Марвел, а DC)))
 

похоже, что насыщение фильма графикой и спецэффектами на сегодня еще не гарантия качественного продукта....нужен еще как минимум внятный сценарий и хорошая игра актеров. В этом фильме только Аффлек и "играл". 5-4 мои оценки.
 

2099, Да сам фильм глупый. Сама идея драки Супермена и обычного человека, который просто пользуется техногаджетами - бред. То, что на нем какой-то костюм, не спасло бы от одного удара Супермена. Кулаком по черепу и всё, он труп.